  0
SECTION
  2
HEADER
  9
$ACADVER
  1
AC1015
  9
$ACADMAINTVER
 70
     6
  9
$DWGCODEPAGE
  3
ANSI_1252
  9
$INSBASE
 10
0.0
 20
0.0
 30
0.0
  9
$EXTMIN
 10
-34.57906928329214
 20
239.218025361884
 30
0.0
  9
$EXTMAX
 10
385.420930716708
 20
833.2180253618842
 30
0.0
  9
$LIMMIN
 10
0.0
 20
0.0
  9
$LIMMAX
 10
12.0
 20
9.0
  9
$ORTHOMODE
 70
     0
  9
$REGENMODE
 70
     1
  9
$FILLMODE
 70
     1
  9
$QTEXTMODE
 70
     0
  9
$MIRRTEXT
 70
     1
  9
$LTSCALE
 40
1.0
  9
$ATTMODE
 70
     1
  9
$TEXTSIZE
 40
0.2
  9
$TRACEWID
 40
0.05
  9
$TEXTSTYLE
  7
Standard
  9
$CLAYER
  8
0
  9
$CELTYPE
  6
ByLayer
  9
$CECOLOR
 62
   256
  9
$CELTSCALE
 40
1.0
  9
$DISPSILH
 70
     0
  9
$DIMSCALE
 40
1.0
  9
$DIMASZ
 40
0.18
  9
$DIMEXO
 40
0.0625
  9
$DIMDLI
 40
0.38
  9
$DIMRND
 40
0.0
  9
$DIMDLE
 40
0.0
  9
$DIMEXE
 40
0.18
  9
$DIMTP
 40
0.0
  9
$DIMTM
 40
0.0
  9
$DIMTXT
 40
0.18
  9
$DIMCEN
 40
0.09
  9
$DIMTSZ
 40
0.0
  9
$DIMTOL
 70
     0
  9
$DIMLIM
 70
     0
  9
$DIMTIH
 70
     1
  9
$DIMTOH
 70
     1
  9
$DIMSE1
 70
     0
  9
$DIMSE2
 70
     0
  9
$DIMTAD
 70
     0
  9
$DIMZIN
 70
     0
  9
$DIMBLK
  1

  9
$DIMASO
 70
     1
  9
$DIMSHO
 70
     1
  9
$DIMPOST
  1

  9
$DIMAPOST
  1

  9
$DIMALT
 70
     0
  9
$DIMALTD
 70
     2
  9
$DIMALTF
 40
25.4
  9
$DIMLFAC
 40
1.0
  9
$DIMTOFL
 70
     0
  9
$DIMTVP
 40
0.0
  9
$DIMTIX
 70
     0
  9
$DIMSOXD
 70
     0
  9
$DIMSAH
 70
     0
  9
$DIMBLK1
  1

  9
$DIMBLK2
  1

  9
$DIMSTYLE
  2
Standard
  9
$DIMCLRD
 70
     0
  9
$DIMCLRE
 70
     0
  9
$DIMCLRT
 70
     0
  9
$DIMTFAC
 40
1.0
  9
$DIMGAP
 40
0.09
  9
$DIMJUST
 70
     0
  9
$DIMSD1
 70
     0
  9
$DIMSD2
 70
     0
  9
$DIMTOLJ
 70
     1
  9
$DIMTZIN
 70
     0
  9
$DIMALTZ
 70
     0
  9
$DIMALTTZ
 70
     0
  9
$DIMUPT
 70
     0
  9
$DIMDEC
 70
     4
  9
$DIMTDEC
 70
     4
  9
$DIMALTU
 70
     2
  9
$DIMALTTD
 70
     2
  9
$DIMTXSTY
  7
Standard
  9
$DIMAUNIT
 70
     0
  9
$DIMADEC
 70
     0
  9
$DIMALTRND
 40
0.0
  9
$DIMAZIN
 70
     0
  9
$DIMDSEP
 70
    46
  9
$DIMATFIT
 70
     3
  9
$DIMFRAC
 70
     0
  9
$DIMLDRBLK
  1

  9
$DIMLUNIT
 70
     2
  9
$DIMLWD
 70
    -2
  9
$DIMLWE
 70
    -2
  9
$DIMTMOVE
 70
     0
  9
$LUNITS
 70
     2
  9
$LUPREC
 70
     4
  9
$SKETCHINC
 40
0.1
  9
$FILLETRAD
 40
0.5
  9
$AUNITS
 70
     0
  9
$AUPREC
 70
     0
  9
$MENU
  1
.
  9
$ELEVATION
 40
0.0
  9
$PELEVATION
 40
0.0
  9
$THICKNESS
 40
0.0
  9
$LIMCHECK
 70
     0
  9
$CHAMFERA
 40
0.5
  9
$CHAMFERB
 40
0.5
  9
$CHAMFERC
 40
1.0
  9
$CHAMFERD
 40
0.0
  9
$SKPOLY
 70
     0
  9
$TDCREATE
 40
2456997.441761655
  9
$TDUCREATE
 40
2456997.400094988
  9
$TDUPDATE
 40
2456997.441761828
  9
$TDUUPDATE
 40
2456997.400095162
  9
$TDINDWG
 40
0.0000000116
  9
$TDUSRTIMER
 40
0.0000000116
  9
$USRTIMER
 70
     1
  9
$ANGBASE
 50
0.0
  9
$ANGDIR
 70
     0
  9
$PDMODE
 70
     0
  9
$PDSIZE
 40
0.0
  9
$PLINEWID
 40
0.0
  9
$SPLFRAME
 70
     0
  9
$SPLINETYPE
 70
     6
  9
$SPLINESEGS
 70
     8
  9
$HANDSEED
  5
28F
  9
$SURFTAB1
 70
     6
  9
$SURFTAB2
 70
     6
  9
$SURFTYPE
 70
     6
  9
$SURFU
 70
     6
  9
$SURFV
 70
     6
  9
$UCSBASE
  2

  9
$UCSNAME
  2

  9
$UCSORG
 10
0.0
 20
0.0
 30
0.0
  9
$UCSXDIR
 10
1.0
 20
0.0
 30
0.0
  9
$UCSYDIR
 10
0.0
 20
1.0
 30
0.0
  9
$UCSORTHOREF
  2

  9
$UCSORTHOVIEW
 70
     0
  9
$UCSORGTOP
 10
0.0
 20
0.0
 30
0.0
  9
$UCSORGBOTTOM
 10
0.0
 20
0.0
 30
0.0
  9
$UCSORGLEFT
 10
0.0
 20
0.0
 30
0.0
  9
$UCSORGRIGHT
 10
0.0
 20
0.0
 30
0.0
  9
$UCSORGFRONT
 10
0.0
 20
0.0
 30
0.0
  9
$UCSORGBACK
 10
0.0
 20
0.0
 30
0.0
  9
$PUCSBASE
  2

  9
$PUCSNAME
  2

  9
$PUCSORG
 10
0.0
 20
0.0
 30
0.0
  9
$PUCSXDIR
 10
1.0
 20
0.0
 30
0.0
  9
$PUCSYDIR
 10
0.0
 20
1.0
 30
0.0
  9
$PUCSORTHOREF
  2

  9
$PUCSORTHOVIEW
 70
     0
  9
$PUCSORGTOP
 10
0.0
 20
0.0
 30
0.0
  9
$PUCSORGBOTTOM
 10
0.0
 20
0.0
 30
0.0
  9
$PUCSORGLEFT
 10
0.0
 20
0.0
 30
0.0
  9
$PUCSORGRIGHT
 10
0.0
 20
0.0
 30
0.0
  9
$PUCSORGFRONT
 10
0.0
 20
0.0
 30
0.0
  9
$PUCSORGBACK
 10
0.0
 20
0.0
 30
0.0
  9
$USERI1
 70
     0
  9
$USERI2
 70
     0
  9
$USERI3
 70
     0
  9
$USERI4
 70
     0
  9
$USERI5
 70
     0
  9
$USERR1
 40
18.1
  9
$USERR2
 40
0.0
  9
$USERR3
 40
0.0
  9
$USERR4
 40
0.0
  9
$USERR5
 40
0.0
  9
$WORLDVIEW
 70
     1
  9
$SHADEDGE
 70
     3
  9
$SHADEDIF
 70
    70
  9
$TILEMODE
 70
     1
  9
$MAXACTVP
 70
    64
  9
$PINSBASE
 10
0.0
 20
0.0
 30
0.0
  9
$PLIMCHECK
 70
     0
  9
$PEXTMIN
 10
1.00000000000000E+20
 20
1.00000000000000E+20
 30
1.00000000000000E+20
  9
$PEXTMAX
 10
-1.00000000000000E+20
 20
-1.00000000000000E+20
 30
-1.00000000000000E+20
  9
$PLIMMIN
 10
0.0
 20
0.0
  9
$PLIMMAX
 10
12.0
 20
9.0
  9
$UNITMODE
 70
     0
  9
$VISRETAIN
 70
     1
  9
$PLINEGEN
 70
     0
  9
$PSLTSCALE
 70
     1
  9
$TREEDEPTH
 70
  3020
  9
$CMLSTYLE
  2
Standard
  9
$CMLJUST
 70
     0
  9
$CMLSCALE
 40
1.0
  9
$PROXYGRAPHICS
 70
     1
  9
$MEASUREMENT
 70
     1
  9
$CELWEIGHT
370
    -1
  9
$ENDCAPS
280
     0
  9
$JOINSTYLE
280
     0
  9
$LWDISPLAY
290
     0
  9
$INSUNITS
 70
     4
  9
$HYPERLINKBASE
  1

  9
$STYLESHEET
  1

  9
$XEDIT
290
     1
  9
$CEPSNTYPE
380
     0
  9
$PSTYLEMODE
290
     1
  9
$FINGERPRINTGUID
  2
{D06FBC54-A763-4EF4-A016-CD543098A597}
  9
$VERSIONGUID
  2
{FAEB1C32-E019-11D5-929B-00C0DF256EC4}
  9
$EXTNAMES
290
     1
  9
$PSVPSCALE
 40
0.0
  9
$OLESTARTUP
290
     0
  0
ENDSEC
  0
SECTION
  2
CLASSES
  0
CLASS
  1
ACDBDICTIONARYWDFLT
  2
AcDbDictionaryWithDefault
  3
ObjectDBX Classes
 90
        0
280
     0
281
     0
  0
CLASS
  1
VISUALSTYLE
  2
AcDbVisualStyle
  3
ObjectDBX Classes
 90
     4095
280
     0
281
     0
  0
CLASS
  1
MATERIAL
  2
AcDbMaterial
  3
ObjectDBX Classes
 90
     1153
280
     0
281
     0
  0
CLASS
  1
DICTIONARYVAR
  2
AcDbDictionaryVar
  3
ObjectDBX Classes
 90
        0
280
     0
281
     0
  0
CLASS
  1
ACDBPLACEHOLDER
  2
AcDbPlaceHolder
  3
ObjectDBX Classes
 90
        0
280
     0
281
     0
  0
CLASS
  1
LAYOUT
  2
AcDbLayout
  3
ObjectDBX Classes
 90
        0
280
     0
281
     0
  0
ENDSEC
  0
SECTION
  2
TABLES
  0
TABLE
  2
VPORT
  5
8
330
0
100
AcDbSymbolTable
 70
     1
  0
VPORT
  5
29
330
8
100
AcDbSymbolTableRecord
100
AcDbViewportTableRecord
  2
*Active
 70
     0
 10
0.0
 20
0.0
 11
1.0
 21
1.0
 12
175.4209307167079
 22
536.2180253618841
 13
0.0
 23
0.0
 14
0.5
 24
0.5
 15
0.5
 25
0.5
 16
0.0
 26
0.0
 36
1.0
 17
0.0
 27
0.0
 37
0.0
 40
653.4000000000003
 41
1.60267857142857
 42
50.0
 43
0.0
 44
0.0
 50
0.0
 51
0.0
 71
     0
 72
   100
 73
     1
 74
     3
 75
     0
 76
     0
 77
     0
 78
     0
281
     0
 65
     1
110
0.0
120
0.0
130
0.0
111
1.0
121
0.0
131
0.0
112
0.0
122
1.0
132
0.0
 79
     0
146
0.0
  0
ENDTAB
  0
TABLE
  2
LTYPE
  5
5
330
0
100
AcDbSymbolTable
 70
     8
  0
LTYPE
  5
14
330
5
100
AcDbSymbolTableRecord
100
AcDbLinetypeTableRecord
  2
ByBlock
 70
     0
  3

 72
    65
 73
     0
 40
0.0
  0
LTYPE
  5
15
330
5
100
AcDbSymbolTableRecord
100
AcDbLinetypeTableRecord
  2
ByLayer
 70
     0
  3

 72
    65
 73
     0
 40
0.0
  0
LTYPE
  5
16
330
5
100
AcDbSymbolTableRecord
100
AcDbLinetypeTableRecord
  2
Continuous
 70
     0
  3
Solid line
 72
    65
 73
     0
 40
0.0
  0
LTYPE
  5
3F
330
5
100
AcDbSymbolTableRecord
100
AcDbLinetypeTableRecord
  2
DASHED
 70
     0
  3
Dashed
 72
    65
 73
     2
 40
15.0
 49
7.0
 74
     0
 49
-8.0
 74
     0
  0
LTYPE
  5
40
330
5
100
AcDbSymbolTableRecord
100
AcDbLinetypeTableRecord
  2
DOTTED
 70
     0
  3
Dotted
 72
    65
 73
     2
 40
1.0
 49
0.0
 74
     0
 49
-1.0
 74
     0
  0
LTYPE
  5
41
330
5
100
AcDbSymbolTableRecord
100
AcDbLinetypeTableRecord
  2
DOT_CENTER
 70
     0
  3
Dot_Center
 72
    65
 73
     4
 40
14.0
 49
12.0
 74
     0
 49
-1.0
 74
     0
 49
0.0
 74
     0
 49
-1.0
 74
     0
  0
LTYPE
  5
42
330
5
100
AcDbSymbolTableRecord
100
AcDbLinetypeTableRecord
  2
LONG_DASHED
 70
     0
  3
Long_Dashed
 72
    65
 73
     2
 40
15.0
 49
10.0
 74
     0
 49
-5.0
 74
     0
  0
LTYPE
  5
43
330
5
100
AcDbSymbolTableRecord
100
AcDbLinetypeTableRecord
  2
DASH_CENTER
 70
     0
  3
Dash_Center
 72
    65
 73
     4
 40
14.0
 49
11.0
 74
     0
 49
-1.0
 74
     0
 49
1.0
 74
     0
 49
-1.0
 74
     0
  0
LTYPE
  5
44
330
5
100
AcDbSymbolTableRecord
100
AcDbLinetypeTableRecord
  2
PHANTOM
 70
     0
  3
Phantom
 72
    65
 73
     6
 40
13.0
 49
10.0
 74
     0
 49
-1.0
 74
     0
 49
0.0
 74
     0
 49
-1.0
 74
     0
 49
0.0
 74
     0
 49
-1.0
 74
     0
  0
LTYPE
  5
45
330
5
100
AcDbSymbolTableRecord
100
AcDbLinetypeTableRecord
  2
CENTER_DASH_DASH
 70
     0
  3
Center_Dash_Dash
 72
    65
 73
     6
 40
14.0
 49
9.0
 74
     0
 49
-1.0
 74
     0
 49
1.0
 74
     0
 49
-1.0
 74
     0
 49
1.0
 74
     0
 49
-1.0
 74
     0
  0
ENDTAB
  0
TABLE
  2
LAYER
  5
2
330
0
100
AcDbSymbolTable
 70
     2
  0
LAYER
  5
10
330
2
100
AcDbSymbolTableRecord
100
AcDbLayerTableRecord
  2
0
 70
     0
 62
     7
  6
Continuous
370
    -3
390
F
  0
LAYER
  5
46
330
2
100
AcDbSymbolTableRecord
100
AcDbLayerTableRecord
  2
1
 70
     0
 62
     7
  6
Continuous
370
    -3
390
F
  0
ENDTAB
  0
TABLE
  2
STYLE
  5
3
330
0
100
AcDbSymbolTable
 70
     4
  0
STYLE
  5
11
330
3
100
AcDbSymbolTableRecord
100
AcDbTextStyleTableRecord
  2
Standard
 70
     0
 40
0.0
 41
1.0
 50
0.0
 71
     0
 42
0.2
  3
txt
  4

  0
STYLE
  5
9B
330
3
100
AcDbSymbolTableRecord
100
AcDbTextStyleTableRecord
  2
CONVERTER_11
 70
     0
 40
0.0
 41
1.38
 50
0.0
 71
     0
 42
0.2
  3
ARIAL.TTF
  4

  0
STYLE
  5
9D
330
3
100
AcDbSymbolTableRecord
100
AcDbTextStyleTableRecord
  2
CONVERTER_12
 70
     0
 40
0.0
 41
1.2
 50
0.0
 71
     0
 42
0.2
  3
ARIAL.TTF
  4

  0
STYLE
  5
247
330
3
100
AcDbSymbolTableRecord
100
AcDbTextStyleTableRecord
  2
CONVERTER_13
 70
     0
 40
0.0
 41
0.95
 50
0.0
 71
     0
 42
0.2
  3
simplex.shx
  4

  0
ENDTAB
  0
TABLE
  2
VIEW
  5
6
330
0
100
AcDbSymbolTable
 70
     0
  0
ENDTAB
  0
TABLE
  2
UCS
  5
7
330
0
100
AcDbSymbolTable
 70
     0
  0
ENDTAB
  0
TABLE
  2
APPID
  5
9
330
0
100
AcDbSymbolTable
 70
     1
  0
APPID
  5
12
330
9
100
AcDbSymbolTableRecord
100
AcDbRegAppTableRecord
  2
ACAD
 70
     0
  0
ENDTAB
  0
TABLE
  2
DIMSTYLE
  5
A
330
0
100
AcDbSymbolTable
 70
     4
100
AcDbDimStyleTable
  0
DIMSTYLE
105
27
330
A
100
AcDbSymbolTableRecord
100
AcDbDimStyleTableRecord
  2
Standard
 70
     0
178
     0
340
11
  0
DIMSTYLE
105
24B
102
{ACAD_REACTORS
330
24C
102
}
330
A
100
AcDbSymbolTableRecord
100
AcDbDimStyleTableRecord
  2
ME10_DIM_10
 70
     0
 41
6.0
 42
1.0
 44
2.0
 73
     0
 74
     0
 77
     1
 78
     8
140
6.0
147
4.0
172
     1
173
     1
174
     1
175
     1
176
     2
177
     2
271
     2
178
     4
271
     2
340
247
  0
DIMSTYLE
105
256
102
{ACAD_REACTORS
330
257
102
}
330
A
100
AcDbSymbolTableRecord
100
AcDbDimStyleTableRecord
  2
ME10_DIM_11
 70
     0
 41
6.0
 42
1.0
 44
2.0
 73
     0
 74
     0
 77
     1
 78
     8
140
6.0
147
4.0
172
     1
173
     1
174
     1
175
     1
176
     2
177
     2
271
     2
178
     4
271
     2
340
247
  0
DIMSTYLE
105
262
102
{ACAD_REACTORS
330
263
102
}
330
A
100
AcDbSymbolTableRecord
100
AcDbDimStyleTableRecord
  2
ME10_DIM_12
 70
     0
 41
6.0
 42
1.0
 44
2.0
 73
     0
 74
     0
 77
     1
 78
     8
140
6.0
147
4.0
172
     1
173
     1
174
     1
175
     1
176
     2
177
     2
271
     2
178
     4
271
     2
340
247
  0
ENDTAB
  0
TABLE
  2
BLOCK_RECORD
  5
1
330
0
100
AcDbSymbolTable
 70
     6
  0
BLOCK_RECORD
  5
1F
330
1
100
AcDbSymbolTableRecord
100
AcDbBlockTableRecord
  2
*Model_Space
340
22
  0
BLOCK_RECORD
  5
1B
330
1
100
AcDbSymbolTableRecord
100
AcDbBlockTableRecord
  2
*Paper_Space
340
1E
  0
BLOCK_RECORD
  5
23
330
1
100
AcDbSymbolTableRecord
100
AcDbBlockTableRecord
  2
*Paper_Space0
340
26
  0
BLOCK_RECORD
  5
47
330
1
100
AcDbSymbolTableRecord
100
AcDbBlockTableRecord
  2
_formato_A4
340
0
102
{BLKREFS
331
4B
102
}
  0
BLOCK_RECORD
  5
4A
330
1
100
AcDbSymbolTableRecord
100
AcDbBlockTableRecord
  2
A4
340
0
102
{BLKREFS
331
4E
102
}
  0
BLOCK_RECORD
  5
241
330
1
100
AcDbSymbolTableRecord
100
AcDbBlockTableRecord
  2
*D3
340
0
  0
BLOCK_RECORD
  5
24D
330
1
100
AcDbSymbolTableRecord
100
AcDbBlockTableRecord
  2
*D4
340
0
  0
BLOCK_RECORD
  5
258
330
1
100
AcDbSymbolTableRecord
100
AcDbBlockTableRecord
  2
*D5
340
0
  0
ENDTAB
  0
ENDSEC
  0
SECTION
  2
BLOCKS
  0
BLOCK
  5
20
330
1F
100
AcDbEntity
  8
0
100
AcDbBlockBegin
  2
*Model_Space
 70
     0
 10
0.0
 20
0.0
 30
0.0
  3
*Model_Space
  1

  0
ENDBLK
  5
21
330
1F
100
AcDbEntity
  8
0
100
AcDbBlockEnd
  0
BLOCK
  5
1C
330
1B
100
AcDbEntity
 67
     1
  8
0
100
AcDbBlockBegin
  2
*Paper_Space
 70
     0
 10
0.0
 20
0.0
 30
0.0
  3
*Paper_Space
  1

  0
ENDBLK
  5
1D
330
1B
100
AcDbEntity
 67
     1
  8
0
100
AcDbBlockEnd
  0
BLOCK
  5
24
330
23
100
AcDbEntity
  8
0
100
AcDbBlockBegin
  2
*Paper_Space0
 70
     0
 10
0.0
 20
0.0
 30
0.0
  3
*Paper_Space0
  1

  0
ENDBLK
  5
25
330
23
100
AcDbEntity
  8
0
100
AcDbBlockEnd
  0
BLOCK
  5
48
330
47
100
AcDbEntity
  8
0
100
AcDbBlockBegin
  2
_formato_A4
 70
     0
 10
494.470930716708
 20
321.068025361884
 30
0.0
  3
_formato_A4
  1

  0
LINE
  5
4F
330
47
100
AcDbEntity
  8
1
  6
Continuous
 62
     7
100
AcDbLine
 10
305.470930716708
 20
336.0680253618839
 30
0.0
 11
335.470930716708
 21
336.0680253618839
 31
0.0
  0
LINE
  5
50
330
47
100
AcDbEntity
  8
1
  6
Continuous
 62
     7
100
AcDbLine
 10
305.470930716708
 20
341.068025361884
 30
0.0
 11
305.470930716708
 21
326.0680253618839
 31
0.0
  0
LINE
  5
51
330
47
100
AcDbEntity
  8
1
  6
Continuous
 62
     7
100
AcDbLine
 10
445.470930716708
 20
341.068025361884
 30
0.0
 11
445.470930716708
 21
326.068025361884
 31
0.0
  0
LINE
  5
52
330
47
100
AcDbEntity
  8
1
  6
Continuous
 62
     7
100
AcDbLine
 10
462.8235320941934
 20
341.068025361884
 30
0.0
 11
462.8235320941934
 21
326.068025361884
 31
0.0
  0
LINE
  5
53
330
47
100
AcDbEntity
  8
1
  6
Continuous
 62
     7
100
AcDbLine
 10
335.470930716708
 20
341.068025361884
 30
0.0
 11
335.470930716708
 21
326.068025361884
 31
0.0
  0
LINE
  5
54
330
47
100
AcDbEntity
  8
1
  6
Continuous
 62
     7
100
AcDbLine
 10
305.470930716708
 20
331.0680253618839
 30
0.0
 11
335.470930716708
 21
331.0680253618839
 31
0.0
  0
LINE
  5
55
330
47
100
AcDbEntity
  8
1
  6
Continuous
 62
     7
100
AcDbLine
 10
284.4709307167079
 20
469.5680253618838
 30
0.0
 11
299.4709307167079
 21
469.5680253618838
 31
0.0
  0
LINE
  5
56
330
47
100
AcDbEntity
  8
1
  6
Continuous
 62
     7
100
AcDbLine
 10
494.470930716708
 20
321.068025361884
 30
0.0
 11
494.470930716708
 21
618.0680253618841
 31
0.0
  0
LINE
  5
57
330
47
100
AcDbEntity
  8
1
  6
Continuous
 62
     7
100
AcDbLine
 10
284.4709307167079
 20
321.068025361884
 30
0.0
 11
494.470930716708
 21
321.068025361884
 31
0.0
  0
LINE
  5
58
330
47
100
AcDbEntity
  8
1
  6
Continuous
 62
     7
100
AcDbLine
 10
284.4709307167079
 20
618.0680253618841
 30
0.0
 11
284.4709307167079
 21
321.068025361884
 31
0.0
  0
LINE
  5
59
330
47
100
AcDbEntity
  8
1
  6
Continuous
 62
     7
100
AcDbLine
 10
494.470930716708
 20
618.0680253618841
 30
0.0
 11
284.4709307167079
 21
618.0680253618841
 31
0.0
  0
LINE
  5
5A
330
47
100
AcDbEntity
  8
1
  6
Continuous
 62
     7
100
AcDbLine
 10
489.470930716708
 20
326.0680253618839
 30
0.0
 11
489.470930716708
 21
613.0680253618841
 31
0.0
  0
LINE
  5
5B
330
47
100
AcDbEntity
  8
1
  6
Continuous
 62
     7
100
AcDbLine
 10
489.470930716708
 20
613.0680253618841
 30
0.0
 11
305.470930716708
 21
613.0680253618841
 31
0.0
  0
LINE
  5
5C
330
47
100
AcDbEntity
  8
1
  6
Continuous
 62
     7
100
AcDbLine
 10
305.470930716708
 20
613.0680253618841
 30
0.0
 11
305.470930716708
 21
326.0680253618839
 31
0.0
  0
LINE
  5
5D
102
{ACAD_REACTORS
330
A5
102
}
330
47
100
AcDbEntity
  8
1
  6
Continuous
 62
     7
100
AcDbLine
 10
478.480564738784
 20
331.1455252017166
 30
0.0
 11
478.480564738784
 21
335.9905255220514
 31
0.0
  0
LINE
  5
5E
102
{ACAD_REACTORS
330
A2
102
}
330
47
100
AcDbEntity
  8
1
  6
Continuous
 62
     7
100
AcDbLine
 10
477.1472314054507
 20
333.568025361884
 30
0.0
 11
477.1472314054507
 21
335.3000761694528
 31
0.0
  0
LINE
  5
5F
102
{ACAD_REACTORS
330
A2
102
}
330
47
100
AcDbEntity
  8
1
  6
Continuous
 62
     7
100
AcDbLine
 10
477.1472314054507
 20
335.3000761694528
 30
0.0
 11
476.2915689727481
 21
333.818025361884
 31
0.0
  0
LINE
  5
60
102
{ACAD_REACTORS
330
A2
102
}
330
47
100
AcDbEntity
  8
1
  6
Continuous
 62
     7
100
AcDbLine
 10
476.0028938381532
 20
333.818025361884
 30
0.0
 11
475.1472314054507
 21
335.3000761694528
 31
0.0
  0
LINE
  5
61
102
{ACAD_REACTORS
330
A2
102
}
330
47
100
AcDbEntity
  8
1
  6
Continuous
 62
     7
100
AcDbLine
 10
475.1472314054507
 20
335.3000761694528
 30
0.0
 11
475.1472314054507
 21
333.568025361884
 31
0.0
  0
LINE
  5
62
330
47
100
AcDbEntity
  8
1
  6
Continuous
 62
     7
100
AcDbLine
 10
467.7307961303091
 20
333.7123896262253
 30
0.0
 11
476.1472314054507
 21
338.568025361884
 31
0.0
  0
LINE
  5
63
330
47
100
AcDbEntity
  8
1
  6
Continuous
 62
     7
100
AcDbLine
 10
476.1472314054507
 20
338.568025361884
 30
0.0
 11
484.5636666805921
 21
333.7123896262253
 31
0.0
  0
LINE
  5
64
330
47
100
AcDbEntity
  8
1
  6
Continuous
 62
     7
100
AcDbLine
 10
484.5636666805921
 20
333.4236610975426
 30
0.0
 11
476.1472314054507
 21
328.568025361884
 31
0.0
  0
LINE
  5
65
330
47
100
AcDbEntity
  8
1
  6
Continuous
 62
     7
100
AcDbLine
 10
476.1472314054507
 20
328.568025361884
 30
0.0
 11
467.7307961303091
 21
333.4236610975426
 31
0.0
  0
LINE
  5
66
102
{ACAD_REACTORS
330
A2
102
}
330
47
100
AcDbEntity
  8
1
  6
Continuous
 62
     7
100
AcDbLine
 10
474.4805647387839
 20
333.568025361884
 30
0.0
 11
474.4805647387839
 21
336.7992426739186
 31
0.0
  0
LINE
  5
67
102
{ACAD_REACTORS
330
A2
102
}
330
47
100
AcDbEntity
  8
1
  6
Continuous
 62
     7
100
AcDbLine
 10
474.9749984224074
 20
336.9317257801563
 30
0.0
 11
476.1472314054507
 21
334.9013586952173
 31
0.0
  0
LINE
  5
68
102
{ACAD_REACTORS
330
A2
102
}
330
47
100
AcDbEntity
  8
1
  6
Continuous
 62
     7
100
AcDbLine
 10
474.4805647387839
 20
333.568025361884
 30
0.0
 11
474.4805647387839
 21
331.9156104345169
 31
0.0
  0
LINE
  5
69
102
{ACAD_REACTORS
330
A2
102
}
330
47
100
AcDbEntity
  8
1
  6
Continuous
 62
     7
100
AcDbLine
 10
475.1472314054507
 20
331.9156104345169
 30
0.0
 11
475.1472314054507
 21
333.568025361884
 31
0.0
  0
LINE
  5
6A
102
{ACAD_REACTORS
330
A2
102
}
330
47
100
AcDbEntity
  8
1
  6
Continuous
 62
     7
100
AcDbLine
 10
477.1472314054507
 20
333.568025361884
 30
0.0
 11
477.1472314054507
 21
330.3762944324858
 31
0.0
  0
LINE
  5
6B
102
{ACAD_REACTORS
330
A2
102
}
330
47
100
AcDbEntity
  8
1
  6
Continuous
 62
     7
100
AcDbLine
 10
477.8138980721173
 20
330.3762944324858
 30
0.0
 11
477.8138980721173
 21
336.7992426739186
 31
0.0
  0
LINE
  5
6C
102
{ACAD_REACTORS
330
A2
102
}
330
47
100
AcDbEntity
  8
1
  6
Continuous
 62
     7
100
AcDbLine
 10
477.3194643884939
 20
336.9317257801563
 30
0.0
 11
476.1472314054507
 21
334.9013586952173
 31
0.0
  0
LINE
  5
6D
102
{ACAD_REACTORS
330
A3
102
}
330
47
100
AcDbEntity
  8
1
  6
Continuous
 62
     7
100
AcDbLine
 10
473.1472314054507
 20
331.3380465099166
 30
0.0
 11
473.1472314054507
 21
335.9905255220514
 31
0.0
  0
LINE
  5
6E
102
{ACAD_REACTORS
330
A3
102
}
330
47
100
AcDbEntity
  8
1
  6
Continuous
 62
     7
100
AcDbLine
 10
473.8138980721173
 20
335.9905255220514
 30
0.0
 11
473.8138980721173
 21
331.3380465099167
 31
0.0
  0
LINE
  5
6F
102
{ACAD_REACTORS
330
A3
102
}
330
47
100
AcDbEntity
  8
1
  6
Continuous
 62
     7
100
AcDbLine
 10
473.8138980721173
 20
331.3380465099167
 30
0.0
 11
475.9804722232805
 21
330.0880998842456
 31
0.0
  0
LINE
  5
70
102
{ACAD_REACTORS
330
A3
102
}
330
47
100
AcDbEntity
  8
1
  6
Continuous
 62
     7
100
AcDbLine
 10
475.6473239209541
 20
329.5106428268798
 30
0.0
 11
473.480749769791
 21
330.7605894525509
 31
0.0
  0
LINE
  5
71
102
{ACAD_REACTORS
330
A4
102
}
330
47
100
AcDbEntity
  8
1
  6
Continuous
 62
     7
100
AcDbLine
 10
472.4805647387839
 20
335.2212947528207
 30
0.0
 11
472.4805647387839
 21
332.1072772791473
 31
0.0
  0
LINE
  5
72
102
{ACAD_REACTORS
330
A4
102
}
330
47
100
AcDbEntity
  8
1
  6
Continuous
 62
     7
100
AcDbLine
 10
472.4805647387839
 20
332.1072772791473
 30
0.0
 11
472.4805647387839
 21
331.9147559709472
 31
0.0
  0
LINE
  5
73
102
{ACAD_REACTORS
330
A4
102
}
330
47
100
AcDbEntity
  8
1
  6
Continuous
 62
     7
100
AcDbLine
 10
471.8138980721173
 20
331.9147559709472
 30
0.0
 11
471.8138980721173
 21
335.2212947528207
 31
0.0
  0
LINE
  5
74
102
{ACAD_REACTORS
330
A5
102
}
330
47
100
AcDbEntity
  8
1
  6
Continuous
 62
     7
100
AcDbLine
 10
478.9804722232805
 20
336.2792540507343
 30
0.0
 11
480.3138055566138
 21
335.5100232815034
 31
0.0
  0
LINE
  5
75
102
{ACAD_REACTORS
330
A5
102
}
330
47
100
AcDbEntity
  8
1
  6
Continuous
 62
     7
100
AcDbLine
 10
479.9806572542875
 20
334.9325662241378
 30
0.0
 11
479.1472314054507
 21
335.4133888292359
 31
0.0
  0
LINE
  5
76
102
{ACAD_REACTORS
330
A5
102
}
330
47
100
AcDbEntity
  8
1
  6
Continuous
 62
     7
100
AcDbLine
 10
479.1472314054507
 20
335.4133888292359
 30
0.0
 11
479.1472314054507
 21
333.9013586952173
 31
0.0
  0
LINE
  5
77
102
{ACAD_REACTORS
330
A5
102
}
330
47
100
AcDbEntity
  8
1
  6
Continuous
 62
     7
100
AcDbLine
 10
479.1472314054507
 20
333.9013586952173
 30
0.0
 11
480.1472314054507
 21
333.9013586952173
 31
0.0
  0
LINE
  5
78
102
{ACAD_REACTORS
330
A5
102
}
330
47
100
AcDbEntity
  8
1
  6
Continuous
 62
     7
100
AcDbLine
 10
480.1472314054507
 20
333.2346920285506
 30
0.0
 11
479.1472314054507
 21
333.2346920285506
 31
0.0
  0
LINE
  5
79
102
{ACAD_REACTORS
330
A5
102
}
330
47
100
AcDbEntity
  8
1
  6
Continuous
 62
     7
100
AcDbLine
 10
479.1472314054507
 20
333.2346920285506
 30
0.0
 11
479.1472314054507
 21
331.7226618945319
 31
0.0
  0
LINE
  5
7A
102
{ACAD_REACTORS
330
A5
102
}
330
47
100
AcDbEntity
  8
1
  6
Continuous
 62
     7
100
AcDbLine
 10
479.1472314054507
 20
331.7226618945319
 30
0.0
 11
479.9806572542875
 21
332.2034844996302
 31
0.0
  0
LINE
  5
7B
102
{ACAD_REACTORS
330
A5
102
}
330
47
100
AcDbEntity
  8
1
  6
Continuous
 62
     7
100
AcDbLine
 10
480.3138055566138
 20
331.6260274422643
 30
0.0
 11
478.9804722232805
 21
330.8567966730337
 31
0.0
  0
LINE
  5
7C
330
47
100
AcDbEntity
  8
1
  6
Continuous
 62
     7
100
AcDbLine
 10
305.470930716708
 20
346.068025361884
 30
0.0
 11
489.470930716708
 21
346.068025361884
 31
0.0
  0
LINE
  5
7D
330
47
100
AcDbEntity
  8
1
  6
Continuous
 62
     7
100
AcDbLine
 10
312.470930716708
 20
341.068025361884
 30
0.0
 11
312.470930716708
 21
346.068025361884
 31
0.0
  0
LINE
  5
7E
330
47
100
AcDbEntity
  8
1
  6
Continuous
 62
     7
100
AcDbLine
 10
330.4709307167081
 20
341.068025361884
 30
0.0
 11
330.4709307167081
 21
346.068025361884
 31
0.0
  0
LINE
  5
7F
330
47
100
AcDbEntity
  8
1
  6
Continuous
 62
     7
100
AcDbLine
 10
305.470930716708
 20
351.068025361884
 30
0.0
 11
489.470930716708
 21
351.068025361884
 31
0.0
  0
LINE
  5
80
330
47
100
AcDbEntity
  8
1
  6
Continuous
 62
     7
100
AcDbLine
 10
312.470930716708
 20
346.068025361884
 30
0.0
 11
312.470930716708
 21
351.068025361884
 31
0.0
  0
LINE
  5
81
330
47
100
AcDbEntity
  8
1
  6
Continuous
 62
     7
100
AcDbLine
 10
330.4709307167081
 20
346.068025361884
 30
0.0
 11
330.4709307167081
 21
351.068025361884
 31
0.0
  0
LINE
  5
82
330
47
100
AcDbEntity
  8
1
  6
Continuous
 62
     7
100
AcDbLine
 10
305.470930716708
 20
356.068025361884
 30
0.0
 11
489.470930716708
 21
356.068025361884
 31
0.0
  0
LINE
  5
83
330
47
100
AcDbEntity
  8
1
  6
Continuous
 62
     7
100
AcDbLine
 10
312.470930716708
 20
351.068025361884
 30
0.0
 11
312.470930716708
 21
356.068025361884
 31
0.0
  0
LINE
  5
84
330
47
100
AcDbEntity
  8
1
  6
Continuous
 62
     7
100
AcDbLine
 10
330.4709307167081
 20
351.068025361884
 30
0.0
 11
330.4709307167081
 21
356.068025361884
 31
0.0
  0
LINE
  5
85
330
47
100
AcDbEntity
  8
1
  6
Continuous
 62
     7
100
AcDbLine
 10
305.470930716708
 20
361.068025361884
 30
0.0
 11
489.470930716708
 21
361.068025361884
 31
0.0
  0
LINE
  5
86
330
47
100
AcDbEntity
  8
1
  6
Continuous
 62
     7
100
AcDbLine
 10
312.470930716708
 20
356.068025361884
 30
0.0
 11
312.470930716708
 21
361.068025361884
 31
0.0
  0
LINE
  5
87
330
47
100
AcDbEntity
  8
1
  6
Continuous
 62
     7
100
AcDbLine
 10
330.4709307167081
 20
356.068025361884
 30
0.0
 11
330.4709307167081
 21
361.068025361884
 31
0.0
  0
LINE
  5
88
330
47
100
AcDbEntity
  8
1
  6
Continuous
 62
     7
100
AcDbLine
 10
305.470930716708
 20
326.0680253618839
 30
0.0
 11
489.470930716708
 21
326.0680253618839
 31
0.0
  0
LINE
  5
89
330
47
100
AcDbEntity
  8
1
  6
Continuous
 62
     7
100
AcDbLine
 10
305.470930716708
 20
341.068025361884
 30
0.0
 11
489.470930716708
 21
341.068025361884
 31
0.0
  0
ARC
  5
8A
102
{ACAD_REACTORS
330
A2
102
}
330
47
100
AcDbEntity
  8
1
  6
Continuous
 62
     7
100
AcDbCircle
 10
474.7455309512592
 20
336.7992426739186
 30
0.0
 40
0.2649662124753527
100
AcDbArc
 50
29.99999999999528
 51
180.0
  0
ARC
  5
8B
102
{ACAD_REACTORS
330
A2
102
}
330
47
100
AcDbEntity
  8
1
  6
Continuous
 62
     7
100
AcDbCircle
 10
474.8138980721173
 20
331.9156104345169
 30
0.0
 40
0.3333333333333712
100
AcDbArc
 50
180.0
 51
0.0
  0
ARC
  5
8C
102
{ACAD_REACTORS
330
A2
102
}
330
47
100
AcDbEntity
  8
1
  6
Continuous
 62
     7
100
AcDbCircle
 10
477.480564738784
 20
330.3762944324858
 30
0.0
 40
0.3333333333332575
100
AcDbArc
 50
180.0
 51
0.0
  0
ARC
  5
8D
102
{ACAD_REACTORS
330
A2
102
}
330
47
100
AcDbEntity
  8
1
  6
Continuous
 62
     7
100
AcDbCircle
 10
477.548931859642
 20
336.7992426739186
 30
0.0
 40
0.2649662124753149
100
AcDbArc
 50
0.0
 51
149.9999999999924
  0
ARC
  5
8E
102
{ACAD_REACTORS
330
A3
102
}
330
47
100
AcDbEntity
  8
1
  6
Continuous
 62
     7
100
AcDbCircle
 10
473.4805647387839
 20
335.9905255220514
 30
0.0
 40
0.3333333333333712
100
AcDbArc
 50
0.0
 51
180.0
  0
ARC
  5
8F
102
{ACAD_REACTORS
330
A3
102
}
330
47
100
AcDbEntity
  8
1
  6
Continuous
 62
     7
100
AcDbCircle
 10
475.8138980721173
 20
329.7993713555627
 30
0.0
 40
0.3333333333333709
100
AcDbArc
 50
240.0183606311493
 51
60.01836063114937
  0
ARC
  5
90
102
{ACAD_REACTORS
330
A4
102
}
330
47
100
AcDbEntity
  8
1
  6
Continuous
 62
     7
100
AcDbCircle
 10
472.1472314054507
 20
335.2212947528207
 30
0.0
 40
0.3333333333332007
100
AcDbArc
 50
0.0
 51
180.0
  0
ARC
  5
91
102
{ACAD_REACTORS
330
A4
102
}
330
47
100
AcDbEntity
  8
1
  6
Continuous
 62
     7
100
AcDbCircle
 10
472.1472314054507
 20
331.9147559709472
 30
0.0
 40
0.3333333333334281
100
AcDbArc
 50
180.0
 51
0.0
  0
ARC
  5
92
102
{ACAD_REACTORS
330
A5
102
}
330
47
100
AcDbEntity
  8
1
  6
Continuous
 62
     7
100
AcDbCircle
 10
480.1472314054507
 20
335.2212947528207
 30
0.0
 40
0.3333333333333709
100
AcDbArc
 50
240.0183606311493
 51
60.01836063115523
  0
ARC
  5
93
102
{ACAD_REACTORS
330
A5
102
}
330
47
100
AcDbEntity
  8
1
  6
Continuous
 62
     7
100
AcDbCircle
 10
480.1472314054507
 20
333.568025361884
 30
0.0
 40
0.3333333333333712
100
AcDbArc
 50
270.0
 51
90.0
  0
ARC
  5
94
102
{ACAD_REACTORS
330
A5
102
}
330
47
100
AcDbEntity
  8
1
  6
Continuous
 62
     7
100
AcDbCircle
 10
480.1472314054507
 20
331.9147559709472
 30
0.0
 40
0.3333333333333349
100
AcDbArc
 50
299.9816393688203
 51
119.9816393688458
  0
ARC
  5
95
102
{ACAD_REACTORS
330
A2
102
}
330
47
100
AcDbEntity
  8
1
  6
Continuous
 62
     7
100
AcDbCircle
 10
476.1472314054507
 20
333.9013586952173
 30
0.0
 40
0.1666666666667365
100
AcDbArc
 50
209.9999999999786
 51
330.0000000000019
  0
ARC
  5
96
102
{ACAD_REACTORS
330
A3
102
}
330
47
100
AcDbEntity
  8
1
  6
Continuous
 62
     7
100
AcDbCircle
 10
473.8138980721173
 20
331.3380465099167
 30
0.0
 40
0.6666666666665719
100
AcDbArc
 50
180.0000000000097
 51
240.0183606311578
  0
ARC
  5
97
330
47
100
AcDbEntity
  8
1
  6
Continuous
 62
     7
100
AcDbCircle
 10
467.8140832058908
 20
333.568025361884
 30
0.0
 40
0.1666666666665945
100
AcDbArc
 50
119.9816393689138
 51
240.0183606311058
  0
ARC
  5
98
330
47
100
AcDbEntity
  8
1
  6
Continuous
 62
     7
100
AcDbCircle
 10
484.4803796050106
 20
333.568025361884
 30
0.0
 40
0.1666666666665794
100
AcDbArc
 50
299.9816393688265
 51
60.01836063115393
  0
ARC
  5
99
102
{ACAD_REACTORS
330
A5
102
}
330
47
100
AcDbEntity
  8
1
  6
Continuous
 62
     7
100
AcDbCircle
 10
478.8138980721173
 20
335.9905255220514
 30
0.0
 40
0.3333333333333709
100
AcDbArc
 50
60.01836063114937
 51
180.0
  0
ARC
  5
9A
102
{ACAD_REACTORS
330
A5
102
}
330
47
100
AcDbEntity
  8
1
  6
Continuous
 62
     7
100
AcDbCircle
 10
478.8138980721173
 20
331.1455252017166
 30
0.0
 40
0.3333333333333144
100
AcDbArc
 50
180.0
 51
299.9816393688506
  0
MTEXT
  5
9C
330
47
100
AcDbEntity
  8
1
 62
     7
100
AcDbMText
 10
320.470930716708
 20
338.568025361884
 30
0.0
 40
2.5
 41
0.0
 71
     5
 72
     1
  1
dimensions in mm
  7
CONVERTER_11
 73
     1
 44
0.60024009603842
  0
MTEXT
  5
9E
330
47
100
AcDbEntity
  8
1
 62
     7
100
AcDbMText
 10
300.4709307167079
 20
472.5680253618838
 30
0.0
 40
4.0
 41
0.0
 71
     5
 72
     1
  1
Diritti riservati      All rights reserved
  7
CONVERTER_12
 11
0.0
 21
1.0
 31
0.0
 73
     1
 44
1.32052821128451
  0
MTEXT
  5
9F
330
47
100
AcDbEntity
  8
1
 62
     7
100
AcDbMText
 10
306.470930716708
 20
333.5680253618839
 30
0.0
 40
3.0
 41
0.0
 71
     4
 72
     1
  1
Date
  7
CONVERTER_12
 73
     1
 44
1.32052821128451
  0
MTEXT
  5
A0
330
47
100
AcDbEntity
  8
1
 62
     7
100
AcDbMText
 10
306.470930716708
 20
328.5680253618839
 30
0.0
 40
3.0
 41
0.0
 71
     4
 72
     1
  1
Sign.
  7
CONVERTER_12
 73
     1
 44
1.32052821128451
  0
MTEXT
  5
A1
330
47
100
AcDbEntity
  8
1
 62
     7
100
AcDbMText
 10
454.1472314054507
 20
337.32866478264
 30
0.0
 40
3.0
 41
0.0
 71
     5
 72
     1
  1
Scale
  7
CONVERTER_12
 73
     1
 44
1.32052821128451
  0
HATCH
  5
A2
330
47
100
AcDbEntity
  8
1
  6
Continuous
 62
     7
100
AcDbHatch
 10
0.0
 20
0.0
 30
0.0
210
0.0
220
0.0
230
1.0
  2
SOLID
 70
     1
 71
     1
 91
        1
 92
        1
 93
       16
 72
     2
 10
474.7455309512592
 20
336.7992426739186
 40
0.2649662124753527
 50
29.99999999999528
 51
180.0
 73
     1
 72
     1
 10
474.4805647387839
 20
336.7992426739186
 11
474.4805647387839
 21
333.568025361884
 72
     1
 10
474.4805647387839
 20
333.568025361884
 11
474.4805647387839
 21
331.9156104345169
 72
     2
 10
474.8138980721173
 20
331.9156104345169
 40
0.3333333333333712
 50
180.0
 51
360.0
 73
     1
 72
     1
 10
475.1472314054507
 20
331.9156104345169
 11
475.1472314054507
 21
333.568025361884
 72
     1
 10
475.1472314054507
 20
333.568025361884
 11
475.1472314054507
 21
335.3000761694528
 72
     1
 10
475.1472314054507
 20
335.3000761694528
 11
476.0028938381532
 21
333.818025361884
 72
     2
 10
476.1472314054507
 20
333.9013586952173
 40
0.1666666666667365
 50
209.9999999999786
 51
330.0000000000019
 73
     1
 72
     1
 10
476.2915689727481
 20
333.818025361884
 11
477.1472314054507
 21
335.3000761694528
 72
     1
 10
477.1472314054507
 20
335.3000761694528
 11
477.1472314054507
 21
333.568025361884
 72
     1
 10
477.1472314054507
 20
333.568025361884
 11
477.1472314054507
 21
330.3762944324858
 72
     2
 10
477.480564738784
 20
330.3762944324858
 40
0.3333333333332575
 50
180.0
 51
360.0
 73
     1
 72
     1
 10
477.8138980721173
 20
330.3762944324858
 11
477.8138980721173
 21
336.7992426739186
 72
     2
 10
477.548931859642
 20
336.7992426739186
 40
0.2649662124753149
 50
0.0
 51
149.9999999999924
 73
     1
 72
     1
 10
477.3194643884939
 20
336.9317257801563
 11
476.1472314054507
 21
334.9013586952173
 72
     1
 10
476.1472314054507
 20
334.9013586952173
 11
474.9749984224074
 21
336.9317257801563
 97
       16
330
6C
330
8D
330
6B
330
8C
330
6A
330
5E
330
5F
330
95
330
60
330
61
330
69
330
8B
330
68
330
66
330
8A
330
67
 75
     0
 76
     1
 98
        1
 10
0.0
 20
0.0
  0
HATCH
  5
A3
330
47
100
AcDbEntity
  8
1
  6
Continuous
 62
     7
100
AcDbHatch
 10
0.0
 20
0.0
 30
0.0
210
0.0
220
0.0
230
1.0
  2
SOLID
 70
     1
 71
     1
 91
        1
 92
        1
 93
        7
 72
     1
 10
473.8138980721173
 20
335.9905255220514
 11
473.8138980721173
 21
331.3380465099167
 72
     1
 10
473.8138980721173
 20
331.3380465099167
 11
475.9804722232805
 21
330.0880998842456
 72
     2
 10
475.8138980721173
 20
329.7993713555627
 40
0.3333333333333709
 50
299.9816393688506
 51
479.9816393688507
 73
     0
 72
     1
 10
475.6473239209541
 20
329.5106428268798
 11
473.480749769791
 21
330.7605894525509
 72
     2
 10
473.8138980721173
 20
331.3380465099167
 40
0.6666666666665719
 50
119.9816393688422
 51
179.9999999999902
 73
     0
 72
     1
 10
473.1472314054507
 20
331.3380465099166
 11
473.1472314054507
 21
335.9905255220514
 72
     2
 10
473.4805647387839
 20
335.9905255220514
 40
0.3333333333333712
 50
180.0
 51
360.0
 73
     0
 97
        7
330
6E
330
6F
330
8F
330
70
330
96
330
6D
330
8E
 75
     0
 76
     1
 98
        1
 10
0.0
 20
0.0
  0
HATCH
  5
A4
330
47
100
AcDbEntity
  8
1
  6
Continuous
 62
     7
100
AcDbHatch
 10
0.0
 20
0.0
 30
0.0
210
0.0
220
0.0
230
1.0
  2
SOLID
 70
     1
 71
     1
 91
        1
 92
        1
 93
        5
 72
     1
 10
472.4805647387839
 20
335.2212947528207
 11
472.4805647387839
 21
332.1072772791473
 72
     1
 10
472.4805647387839
 20
332.1072772791473
 11
472.4805647387839
 21
331.9147559709472
 72
     2
 10
472.1472314054507
 20
331.9147559709472
 40
0.3333333333334281
 50
0.0
 51
180.0
 73
     0
 72
     1
 10
471.8138980721173
 20
331.9147559709472
 11
471.8138980721173
 21
335.2212947528207
 72
     2
 10
472.1472314054507
 20
335.2212947528207
 40
0.3333333333332007
 50
180.0
 51
360.0
 73
     0
 97
        5
330
71
330
72
330
91
330
73
330
90
 75
     0
 76
     1
 98
        1
 10
0.0
 20
0.0
  0
HATCH
  5
A5
330
47
100
AcDbEntity
  8
1
  6
Continuous
 62
     7
100
AcDbHatch
 10
0.0
 20
0.0
 30
0.0
210
0.0
220
0.0
230
1.0
  2
SOLID
 70
     1
 71
     1
 91
        1
 92
        1
 93
       14
 72
     1
 10
479.9806572542875
 20
334.9325662241378
 11
479.1472314054507
 21
335.4133888292359
 72
     1
 10
479.1472314054507
 20
335.4133888292359
 11
479.1472314054507
 21
333.9013586952173
 72
     1
 10
479.1472314054507
 20
333.9013586952173
 11
480.1472314054507
 21
333.9013586952173
 72
     2
 10
480.1472314054507
 20
333.568025361884
 40
0.3333333333333712
 50
270.0
 51
450.0
 73
     0
 72
     1
 10
480.1472314054507
 20
333.2346920285506
 11
479.1472314054507
 21
333.2346920285506
 72
     1
 10
479.1472314054507
 20
333.2346920285506
 11
479.1472314054507
 21
331.7226618945319
 72
     1
 10
479.1472314054507
 20
331.7226618945319
 11
479.9806572542875
 21
332.2034844996302
 72
     2
 10
480.1472314054507
 20
331.9147559709472
 40
0.3333333333333349
 50
240.0183606311542
 51
420.0183606311796
 73
     0
 72
     1
 10
480.3138055566138
 20
331.6260274422643
 11
478.9804722232805
 21
330.8567966730337
 72
     2
 10
478.8138980721173
 20
331.1455252017166
 40
0.3333333333333144
 50
60.01836063114938
 51
180.0
 73
     0
 72
     1
 10
478.480564738784
 20
331.1455252017166
 11
478.480564738784
 21
335.9905255220514
 72
     2
 10
478.8138980721173
 20
335.9905255220514
 40
0.3333333333333709
 50
180.0
 51
299.9816393688506
 73
     0
 72
     1
 10
478.9804722232805
 20
336.2792540507343
 11
480.3138055566138
 21
335.5100232815034
 72
     2
 10
480.1472314054507
 20
335.2212947528207
 40
0.3333333333333709
 50
299.9816393688448
 51
479.9816393688507
 73
     0
 97
       14
330
74
330
99
330
5D
330
9A
330
7B
330
94
330
7A
330
79
330
78
330
93
330
77
330
76
330
75
330
92
 75
     0
 76
     1
 98
        1
 10
0.0
 20
0.0
  0
ENDBLK
  5
49
330
47
100
AcDbEntity
  8
0
100
AcDbBlockEnd
  0
BLOCK
  5
4C
330
4A
100
AcDbEntity
  8
0
100
AcDbBlockBegin
  2
A4
 70
     0
 10
385.420930716708
 20
239.218025361884
 30
0.0
  3
A4
  1

  0
INSERT
  5
4B
330
4A
100
AcDbEntity
  8
1
100
AcDbBlockReference
  2
_formato_A4
 10
385.420930716708
 20
239.218025361884
 30
0.0
 41
2.0
 42
2.0
 43
2.0
  0
ENDBLK
  5
4D
330
4A
100
AcDbEntity
  8
0
100
AcDbBlockEnd
  0
BLOCK
  5
249
330
241
100
AcDbEntity
  8
0
100
AcDbBlockBegin
  2
*D3
 70
     1
 10
0.0
 20
0.0
 30
0.0
  3
*D3
  1

  0
LINE
  5
242
330
241
100
AcDbEntity
  8
1
  6
Continuous
 62
     2
100
AcDbLine
 10
211.618817439798
 20
700.2655015197635
 30
0.0
 11
211.618817439798
 21
445.2655015197689
 31
0.0
  0
LINE
  5
243
330
241
100
AcDbEntity
  8
1
  6
Continuous
 62
     2
100
AcDbLine
 10
175.6326277208191
 20
700.2655015197635
 30
0.0
 11
213.618817439798
 21
700.2655015197635
 31
0.0
  0
LINE
  5
244
330
241
100
AcDbEntity
  8
1
  6
Continuous
 62
     2
100
AcDbLine
 10
175.6326277208182
 20
445.2655015197689
 30
0.0
 11
213.618817439798
 21
445.2655015197689
 31
0.0
  0
SOLID
  5
245
330
241
100
AcDbEntity
  8
1
 62
     2
100
AcDbTrace
 10
212.4087324253224
 20
694.2655015197635
 30
0.0
 11
210.8289024542736
 21
694.2655015197635
 31
0.0
 12
211.618817439798
 22
700.2655015197635
 32
0.0
 13
211.618817439798
 23
700.2655015197635
 33
0.0
  0
SOLID
  5
246
330
241
100
AcDbEntity
  8
1
 62
     2
100
AcDbTrace
 10
210.8289024542736
 20
451.2655015197689
 30
0.0
 11
212.4087324253224
 21
451.2655015197689
 31
0.0
 12
211.618817439798
 22
445.2655015197689
 32
0.0
 13
211.618817439798
 23
445.2655015197689
 33
0.0
  0
MTEXT
  5
248
330
241
100
AcDbEntity
  8
1
 62
     4
100
AcDbMText
 10
207.618817439798
 20
565.5655015197661
 30
0.0
 40
6.0
 41
0.0
 71
     7
 72
     1
  1
255
  7
CONVERTER_13
 11
0.0
 21
1.0
 31
0.0
 73
     1
 44
0.60024009603842
  0
ENDBLK
  5
24A
330
241
100
AcDbEntity
  8
0
100
AcDbBlockEnd
  0
BLOCK
  5
254
330
24D
100
AcDbEntity
  8
0
100
AcDbBlockBegin
  2
*D4
 70
     1
 10
0.0
 20
0.0
 30
0.0
  3
*D4
  1

  0
LINE
  5
24E
330
24D
100
AcDbEntity
  8
1
  6
Continuous
 62
     2
100
AcDbLine
 10
67.63022899567615
 20
415.178569619642
 30
0.0
 11
181.630228995647
 21
415.178569619642
 31
0.0
  0
LINE
  5
24F
330
24D
100
AcDbEntity
  8
1
  6
Continuous
 62
     2
100
AcDbLine
 10
67.63022899567615
 20
451.263102794598
 30
0.0
 11
67.63022899567615
 21
413.178569619642
 31
0.0
  0
LINE
  5
250
330
24D
100
AcDbEntity
  8
1
  6
Continuous
 62
     2
100
AcDbLine
 10
181.630228995647
 20
451.263102794598
 30
0.0
 11
181.630228995647
 21
413.178569619642
 31
0.0
  0
SOLID
  5
251
330
24D
100
AcDbEntity
  8
1
 62
     2
100
AcDbTrace
 10
73.63022899567615
 20
415.9684846051664
 30
0.0
 11
73.63022899567615
 21
414.3886546341176
 31
0.0
 12
67.63022899567615
 22
415.178569619642
 32
0.0
 13
67.63022899567615
 23
415.178569619642
 33
0.0
  0
SOLID
  5
252
330
24D
100
AcDbEntity
  8
1
 62
     2
100
AcDbTrace
 10
175.630228995647
 20
414.3886546341176
 30
0.0
 11
175.630228995647
 21
415.9684846051664
 31
0.0
 12
181.630228995647
 22
415.178569619642
 32
0.0
 13
181.630228995647
 23
415.178569619642
 33
0.0
  0
MTEXT
  5
253
330
24D
100
AcDbEntity
  8
1
 62
     4
100
AcDbMText
 10
119.2302289956616
 20
419.178569619642
 30
0.0
 40
6.0
 41
0.0
 71
     7
 72
     1
  1
114
  7
CONVERTER_13
 11
0.9999999999970619
 21
2.424068405545306E-6
 31
0.0
 73
     1
 44
0.60024009603842
  0
ENDBLK
  5
255
330
24D
100
AcDbEntity
  8
0
100
AcDbBlockEnd
  0
BLOCK
  5
260
330
258
100
AcDbEntity
  8
0
100
AcDbBlockBegin
  2
*D5
 70
     1
 10
0.0
 20
0.0
 30
0.0
  3
*D5
  1

  0
LINE
  5
259
330
258
100
AcDbEntity
  8
1
  6
Continuous
 62
     2
100
AcDbLine
 10
253.5745198231792
 20
415.330411450026
 30
0.0
 11
271.0697618046422
 21
415.330411450026
 31
0.0
  0
LINE
  5
25A
330
258
100
AcDbEntity
  8
1
  6
Continuous
 62
     2
100
AcDbLine
 10
271.0697618046422
 20
415.330411450026
 30
0.0
 11
299.0697618044189
 21
415.330411450026
 31
0.0
  0
LINE
  5
25B
330
258
100
AcDbEntity
  8
1
  6
Continuous
 62
     2
100
AcDbLine
 10
271.0697618046422
 20
444.2655015197999
 30
0.0
 11
271.0697618046422
 21
413.330411450026
 31
0.0
  0
LINE
  5
25C
330
258
100
AcDbEntity
  8
1
  6
Continuous
 62
     2
100
AcDbLine
 10
299.0697618044189
 20
453.958861740906
 30
0.0
 11
299.0697618044189
 21
413.330411450026
 31
0.0
  0
SOLID
  5
25D
330
258
100
AcDbEntity
  8
1
 62
     2
100
AcDbTrace
 10
277.0697618046422
 20
416.1203264355504
 30
0.0
 11
277.0697618046422
 21
414.5404964645016
 31
0.0
 12
271.0697618046422
 22
415.330411450026
 32
0.0
 13
271.0697618046422
 23
415.330411450026
 33
0.0
  0
SOLID
  5
25E
330
258
100
AcDbEntity
  8
1
 62
     2
100
AcDbTrace
 10
293.0697618044189
 20
414.5404964645016
 30
0.0
 11
293.0697618044189
 21
416.1203264355504
 31
0.0
 12
299.0697618044189
 22
415.330411450026
 32
0.0
 13
299.0697618044189
 23
415.330411450026
 33
0.0
  0
MTEXT
  5
25F
330
258
100
AcDbEntity
  8
1
 62
     4
100
AcDbMText
 10
253.5745198231792
 20
419.330411450026
 30
0.0
 40
6.0
 41
0.0
 71
     7
 72
     1
  1
28
  7
CONVERTER_13
 11
0.9999999999970619
 21
2.424068405545306E-6
 31
0.0
 73
     1
 44
0.60024009603842
  0
ENDBLK
  5
261
330
258
100
AcDbEntity
  8
0
100
AcDbBlockEnd
  0
ENDSEC
  0
SECTION
  2
ENTITIES
  0
INSERT
  5
4E
330
1F
100
AcDbEntity
  8
0
100
AcDbBlockReference
  2
A4
 10
385.420930716708
 20
239.218025361884
 30
0.0
  0
LINE
  5
A6
330
1F
100
AcDbEntity
  8
0
  6
Continuous
 62
     2
100
AcDbLine
 10
299.0697618044189
 20
454.958861740906
 30
0.0
 11
291.279177390882
 21
454.958861740906
 31
0.0
  0
LINE
  5
A7
330
1F
100
AcDbEntity
  8
0
  6
Continuous
 62
     7
100
AcDbLine
 10
299.0697618044189
 20
454.958861740906
 30
0.0
 11
299.0697618044188
 21
468.236556257288
 31
0.0
  0
LINE
  5
A8
330
1F
100
AcDbEntity
  8
0
  6
Continuous
 62
     7
100
AcDbLine
 10
299.0697618046208
 20
677.2944467823017
 30
0.0
 11
299.069761804621
 21
690.5721412986842
 31
0.0
  0
LINE
  5
A9
330
1F
100
AcDbEntity
  8
0
  6
Continuous
 62
     2
100
AcDbLine
 10
291.2791773910839
 20
690.5721412986842
 30
0.0
 11
299.069761804621
 21
690.5721412986842
 31
0.0
  0
LINE
  5
AA
330
1F
100
AcDbEntity
  8
0
  6
Continuous
 62
     7
100
AcDbLine
 10
299.069761804621
 20
690.5721412986842
 30
0.0
 11
299.0697618046208
 21
691.4848746073864
 31
0.0
  0
LINE
  5
AB
330
1F
100
AcDbEntity
  8
0
  6
Continuous
 62
     2
100
AcDbLine
 10
299.0697618046208
 20
677.2944467823017
 30
0.0
 11
291.4884494545644
 21
677.2944467823017
 31
0.0
  0
LINE
  5
AC
330
1F
100
AcDbEntity
  8
0
  6
Continuous
 62
     7
100
AcDbLine
 10
299.0697618046208
 20
677.2944467823017
 30
0.0
 11
299.0697618045185
 21
572.7655015197819
 31
0.0
  0
LINE
  5
AD
330
1F
100
AcDbEntity
  8
0
  6
Continuous
 62
     7
100
AcDbLine
 10
281.8802289956435
 20
699.9774563825025
 30
0.0
 11
291.4884494545644
 21
699.473910885423
 31
0.0
  0
LINE
  5
AE
330
1F
100
AcDbEntity
  8
0
  6
Continuous
 62
     7
100
AcDbLine
 10
270.8802289956431
 20
572.7655015197819
 30
0.0
 11
271.0697618046433
 21
700.2655015197635
 31
0.0
  0
LINE
  5
AF
330
1F
100
AcDbEntity
  8
0
  6
Continuous
 62
     7
100
AcDbLine
 10
281.3933174697973
 20
699.9902066095294
 30
0.0
 11
271.0697618046433
 21
700.2655015197635
 31
0.0
  0
LINE
  5
B0
330
1F
100
AcDbEntity
  8
0
  6
Continuous
 62
     2
100
AcDbLine
 10
291.4884494545644
 20
677.2944467823017
 30
0.0
 11
291.4884494544621
 21
572.7655015197819
 31
0.0
  0
LINE
  5
B1
330
1F
100
AcDbEntity
  8
0
  6
Continuous
 62
     7
100
AcDbLine
 10
281.8802289956431
 20
686.1216503473959
 30
0.0
 11
281.8802289956431
 21
690.76550151976
 31
0.0
  0
LINE
  5
B2
330
1F
100
AcDbEntity
  8
0
  6
Continuous
 62
     7
100
AcDbLine
 10
281.8802289956431
 20
690.76550151976
 30
0.0
 11
281.8802289956435
 21
699.4903779470417
 31
0.0
  0
LINE
  5
B3
330
1F
100
AcDbEntity
  8
0
  6
Continuous
 62
     2
100
AcDbLine
 10
291.4884494545644
 20
677.2944467823017
 30
0.0
 11
281.8802289956401
 21
677.6427932939715
 31
0.0
  0
LINE
  5
B4
330
1F
100
AcDbEntity
  8
0
  6
Continuous
 62
     2
100
AcDbLine
 10
291.2791773910839
 20
685.2917053821061
 30
0.0
 11
291.2791773910839
 21
690.5721412986842
 31
0.0
  0
LINE
  5
B5
330
1F
100
AcDbEntity
  8
0
  6
Continuous
 62
     2
100
AcDbLine
 10
281.8802289956431
 20
690.76550151976
 30
0.0
 11
291.2791773910839
 21
690.5721412986842
 31
0.0
  0
LINE
  5
B6
330
1F
100
AcDbEntity
  8
0
  6
Continuous
 62
     7
100
AcDbLine
 10
281.8802289956401
 20
677.6427932939715
 30
0.0
 11
281.8802289956431
 21
685.634571911935
 31
0.0
  0
LINE
  5
B7
330
1F
100
AcDbEntity
  8
0
  6
Continuous
 62
     7
100
AcDbLine
 10
291.2791773910839
 20
685.2917053821061
 30
0.0
 11
282.3671405214891
 21
685.6218216849081
 31
0.0
  0
LINE
  5
B8
330
1F
100
AcDbEntity
  8
0
  6
Continuous
 62
     2
100
AcDbLine
 10
291.2791773910839
 20
690.5721412986842
 30
0.0
 11
291.2791773910839
 21
691.4848746073864
 31
0.0
  0
LINE
  5
B9
330
1F
100
AcDbEntity
  8
1
  6
Continuous
 62
     7
100
AcDbLine
 10
281.8802289956435
 20
699.9774563825025
 30
0.0
 11
281.3933174697973
 21
699.9902066095294
 31
0.0
  0
LINE
  5
BA
330
1F
100
AcDbEntity
  8
1
  6
Continuous
 62
     7
100
AcDbLine
 10
281.8802289956435
 20
699.4903779470417
 30
0.0
 11
281.8802289956435
 21
699.9774563825025
 31
0.0
  0
LINE
  5
BB
330
1F
100
AcDbEntity
  8
0
  6
Continuous
 62
     7
100
AcDbLine
 10
281.8802289956401
 20
572.7655015197819
 30
0.0
 11
281.8802289956401
 21
677.6427932939715
 31
0.0
  0
LINE
  5
BC
330
1F
100
AcDbEntity
  8
0
  6
Continuous
 62
     7
100
AcDbLine
 10
299.0697618044188
 20
454.046128432204
 30
0.0
 11
299.0697618044189
 21
454.958861740906
 31
0.0
  0
LINE
  5
BD
330
1F
100
AcDbEntity
  8
0
  6
Continuous
 62
     2
100
AcDbLine
 10
291.4884494543622
 20
468.236556257289
 30
0.0
 11
299.0697618044188
 21
468.236556257288
 31
0.0
  0
LINE
  5
BE
330
1F
100
AcDbEntity
  8
0
  6
Continuous
 62
     7
100
AcDbLine
 10
271.0697618046423
 20
445.2655015197998
 30
0.0
 11
270.8802289956431
 21
572.7655015197819
 31
0.0
  0
LINE
  5
BF
330
1F
100
AcDbEntity
  8
0
  6
Continuous
 62
     7
100
AcDbLine
 10
281.8802289956431
 20
454.7655015198039
 30
0.0
 11
281.8802289956431
 21
459.409352692168
 31
0.0
  0
LINE
  5
C0
330
1F
100
AcDbEntity
  8
0
  6
Continuous
 62
     7
100
AcDbLine
 10
281.8802289956431
 20
446.040625092522
 30
0.0
 11
281.8802289956431
 21
454.7655015198039
 31
0.0
  0
LINE
  5
C1
330
1F
100
AcDbEntity
  8
0
  6
Continuous
 62
     2
100
AcDbLine
 10
281.8802289956401
 20
467.888209745592
 30
0.0
 11
291.4884494543622
 21
468.236556257289
 31
0.0
  0
LINE
  5
C2
330
1F
100
AcDbEntity
  8
0
  6
Continuous
 62
     2
100
AcDbLine
 10
291.279177390882
 20
454.958861740906
 30
0.0
 11
291.279177390882
 21
460.2392976574839
 31
0.0
  0
LINE
  5
C3
330
1F
100
AcDbEntity
  8
0
  6
Continuous
 62
     2
100
AcDbLine
 10
291.279177390882
 20
454.958861740906
 30
0.0
 11
281.8802289956431
 21
454.7655015198039
 31
0.0
  0
LINE
  5
C4
330
1F
100
AcDbEntity
  8
0
  6
Continuous
 62
     7
100
AcDbLine
 10
281.8802289956431
 20
459.8964311276289
 30
0.0
 11
281.8802289956401
 21
467.888209745592
 31
0.0
  0
LINE
  5
C5
330
1F
100
AcDbEntity
  8
0
  6
Continuous
 62
     7
100
AcDbLine
 10
282.3671405214891
 20
459.909181354656
 30
0.0
 11
291.279177390882
 21
460.2392976574839
 31
0.0
  0
LINE
  5
C6
330
1F
100
AcDbEntity
  8
0
  6
Continuous
 62
     2
100
AcDbLine
 10
291.2791773908818
 20
454.046128432204
 30
0.0
 11
291.279177390882
 21
454.958861740906
 31
0.0
  0
LINE
  5
C7
330
1F
100
AcDbEntity
  8
0
  6
Continuous
 62
     7
100
AcDbLine
 10
281.8802289956401
 20
467.888209745592
 30
0.0
 11
281.8802289956401
 21
572.7655015197819
 31
0.0
  0
LINE
  5
C8
330
1F
100
AcDbEntity
  8
0
  6
Continuous
 62
     2
100
AcDbLine
 10
291.4884494544621
 20
572.7655015197819
 30
0.0
 11
291.4884494543622
 21
468.236556257289
 31
0.0
  0
LINE
  5
C9
330
1F
100
AcDbEntity
  8
0
  6
Continuous
 62
     7
100
AcDbLine
 10
299.0697618045185
 20
572.7655015197819
 30
0.0
 11
299.0697618044188
 21
468.236556257288
 31
0.0
  0
LINE
  5
CA
330
1F
100
AcDbEntity
  8
1
  6
Continuous
 62
     7
100
AcDbLine
 10
281.8802289956431
 20
685.634571911935
 30
0.0
 11
281.8802289956431
 21
686.1216503473959
 31
0.0
  0
LINE
  5
CB
330
1F
100
AcDbEntity
  8
1
  6
Continuous
 62
     7
100
AcDbLine
 10
281.8802289956431
 20
459.409352692168
 30
0.0
 11
281.8802289956431
 21
459.8964311276289
 31
0.0
  0
LINE
  5
CC
330
1F
100
AcDbEntity
  8
0
  6
Continuous
 62
     7
100
AcDbLine
 10
74.627830270505
 20
700.2655015197635
 30
0.0
 11
174.6326277208191
 21
700.2655015197635
 31
0.0
  0
LINE
  5
CD
330
1F
100
AcDbEntity
  8
0
  6
Continuous
 62
     7
100
AcDbLine
 10
158.8525344792602
 20
699.667271106499
 30
0.0
 11
90.41066491224547
 21
699.667271106499
 31
0.0
  0
LINE
  5
CE
330
1F
100
AcDbEntity
  8
0
  6
Continuous
 62
     2
100
AcDbLine
 10
158.8525344792602
 20
691.6782348284622
 30
0.0
 11
90.40792351205005
 21
691.6782348284622
 31
0.0
  0
LINE
  5
CF
330
1F
100
AcDbEntity
  8
0
  6
Continuous
 62
     2
100
AcDbLine
 10
158.8525344792711
 20
699.667271106499
 30
0.0
 11
158.8525344792711
 21
691.6782348284622
 31
0.0
  0
LINE
  5
D0
330
1F
100
AcDbEntity
  8
0
  6
Continuous
 62
     2
100
AcDbLine
 10
166.8497930790761
 20
690.76550151976
 30
0.0
 11
166.9992993878291
 21
690.76550151976
 31
0.0
  0
LINE
  5
D1
330
1F
100
AcDbEntity
  8
0
  6
Continuous
 62
     7
100
AcDbLine
 10
172.130228995675
 20
685.4850656031821
 30
0.0
 11
172.130228995675
 21
685.6345719119141
 31
0.0
  0
LINE
  5
D2
330
1F
100
AcDbEntity
  8
0
  6
Continuous
 62
     2
100
AcDbLine
 10
158.8525344792711
 20
691.6782348284622
 30
0.0
 11
158.8525344792711
 21
690.76550151976
 31
0.0
  0
LINE
  5
D3
330
1F
100
AcDbEntity
  8
0
  6
Continuous
 62
     2
100
AcDbLine
 10
158.8525344792711
 20
691.6782348284622
 30
0.0
 11
166.8497930790757
 21
691.6782348284622
 31
0.0
  0
LINE
  5
D4
330
1F
100
AcDbEntity
  8
0
  6
Continuous
 62
     2
100
AcDbLine
 10
173.042962304344
 20
685.4850656031821
 30
0.0
 11
173.042962304344
 21
677.4878070033776
 31
0.0
  0
LINE
  5
D5
330
1F
100
AcDbEntity
  8
0
  6
Continuous
 62
     2
100
AcDbLine
 10
173.042962304344
 20
677.4878070033776
 30
0.0
 11
172.130228995675
 21
677.4878070033567
 31
0.0
  0
LINE
  5
D6
330
1F
100
AcDbEntity
  8
0
  6
Continuous
 62
     2
100
AcDbLine
 10
181.0319985823801
 20
677.4878070033776
 30
0.0
 11
173.042962304344
 21
677.4878070033776
 31
0.0
  0
LINE
  5
D7
330
1F
100
AcDbEntity
  8
0
  6
Continuous
 62
     7
100
AcDbLine
 10
166.8497930790761
 20
691.667271106499
 30
0.0
 11
166.8497930790761
 21
690.76550151976
 31
0.0
  0
LINE
  5
D8
330
1F
100
AcDbEntity
  8
0
  6
Continuous
 62
     7
100
AcDbLine
 10
173.0319985823801
 20
685.4850656031821
 30
0.0
 11
172.130228995675
 21
685.4850656031821
 31
0.0
  0
LINE
  5
D9
330
1F
100
AcDbEntity
  8
0
  6
Continuous
 62
     7
100
AcDbLine
 10
181.630228995647
 20
693.2679002449346
 30
0.0
 11
181.630228995647
 21
452.263102794598
 31
0.0
  0
LINE
  5
DA
330
1F
100
AcDbEntity
  8
0
  6
Continuous
 62
     7
100
AcDbLine
 10
181.0319985823821
 20
468.0431960361749
 30
0.0
 11
181.0319985823821
 21
677.4878070033776
 31
0.0
  0
LINE
  5
DB
330
1F
100
AcDbEntity
  8
0
  6
Continuous
 62
     2
100
AcDbLine
 10
173.042962304346
 20
468.0431960361749
 30
0.0
 11
173.042962304346
 21
677.4878070033776
 31
0.0
  0
LINE
  5
DC
330
1F
100
AcDbEntity
  8
0
  6
Continuous
 62
     2
100
AcDbLine
 10
173.0405319956601
 20
674.5655375479804
 30
0.0
 11
173.0405319956601
 21
470.9655015197819
 31
0.0
  0
LINE
  5
DD
330
1F
100
AcDbEntity
  8
0
  6
Continuous
 62
     2
100
AcDbLine
 10
172.6405319956612
 20
470.9655015197819
 30
0.0
 11
172.6405319956612
 21
674.5655375479805
 31
0.0
  0
LINE
  5
DE
330
1F
100
AcDbEntity
  8
0
  6
Continuous
 62
     2
100
AcDbLine
 10
171.8405319956601
 20
674.5655375479804
 30
0.0
 11
171.8405319956601
 21
470.9655015197819
 31
0.0
  0
LINE
  5
DF
330
1F
100
AcDbEntity
  8
0
  6
Continuous
 62
     2
100
AcDbLine
 10
171.4405319956611
 20
470.9655015197819
 30
0.0
 11
171.4405319956611
 21
674.5655375479805
 31
0.0
  0
LINE
  5
E0
330
1F
100
AcDbEntity
  8
0
  6
Continuous
 62
     7
100
AcDbLine
 10
158.8525344792602
 20
445.8637319330329
 30
0.0
 11
90.40792351205005
 21
445.8637319330329
 31
0.0
  0
LINE
  5
E1
330
1F
100
AcDbEntity
  8
0
  6
Continuous
 62
     7
100
AcDbLine
 10
174.6326277208182
 20
445.2655015197689
 30
0.0
 11
74.627830270505
 21
445.2655015197689
 31
0.0
  0
LINE
  5
E2
330
1F
100
AcDbEntity
  8
0
  6
Continuous
 62
     2
100
AcDbLine
 10
158.8525344792602
 20
453.8527682110699
 30
0.0
 11
90.40792351205005
 21
453.8527682110699
 31
0.0
  0
LINE
  5
E3
330
1F
100
AcDbEntity
  8
0
  6
Continuous
 62
     2
100
AcDbLine
 10
158.8525344792711
 20
453.8527682111009
 30
0.0
 11
158.8525344792711
 21
445.863731933065
 31
0.0
  0
LINE
  5
E4
330
1F
100
AcDbEntity
  8
0
  6
Continuous
 62
     2
100
AcDbLine
 10
166.9992993878291
 20
454.7655015198039
 30
0.0
 11
166.8497930790761
 21
454.7655015198039
 31
0.0
  0
LINE
  5
E5
330
1F
100
AcDbEntity
  8
0
  6
Continuous
 62
     7
100
AcDbLine
 10
172.130228995675
 20
459.8964311276499
 30
0.0
 11
172.130228995675
 21
460.045937436381
 31
0.0
  0
LINE
  5
E6
330
1F
100
AcDbEntity
  8
0
  6
Continuous
 62
     2
100
AcDbLine
 10
158.8525344792711
 20
454.7655015198039
 30
0.0
 11
158.8525344792711
 21
453.8527682111009
 31
0.0
  0
LINE
  5
E7
330
1F
100
AcDbEntity
  8
0
  6
Continuous
 62
     2
100
AcDbLine
 10
166.8497930790761
 20
453.8527682111009
 30
0.0
 11
158.8525344792711
 21
453.8527682111009
 31
0.0
  0
LINE
  5
E8
330
1F
100
AcDbEntity
  8
0
  6
Continuous
 62
     2
100
AcDbLine
 10
173.042962304344
 20
468.043196036186
 30
0.0
 11
173.042962304344
 21
460.045937436381
 31
0.0
  0
LINE
  5
E9
330
1F
100
AcDbEntity
  8
0
  6
Continuous
 62
     2
100
AcDbLine
 10
172.130228995675
 20
468.043196036207
 30
0.0
 11
173.042962304344
 21
468.043196036186
 31
0.0
  0
LINE
  5
EA
330
1F
100
AcDbEntity
  8
0
  6
Continuous
 62
     2
100
AcDbLine
 10
173.042962304344
 20
468.043196036186
 30
0.0
 11
181.0319985823801
 21
468.043196036186
 31
0.0
  0
LINE
  5
EB
330
1F
100
AcDbEntity
  8
0
  6
Continuous
 62
     7
100
AcDbLine
 10
166.8497930790761
 20
454.7655015198039
 30
0.0
 11
166.8497930790761
 21
453.863731933065
 31
0.0
  0
LINE
  5
EC
330
1F
100
AcDbEntity
  8
0
  6
Continuous
 62
     7
100
AcDbLine
 10
172.130228995675
 20
460.045937436381
 30
0.0
 11
173.042962304344
 21
460.045937436381
 31
0.0
  0
LINE
  5
ED
330
1F
100
AcDbEntity
  8
0
  6
Continuous
 62
     2
100
AcDbLine
 10
90.40792351205005
 20
445.863731933065
 30
0.0
 11
90.40792351205005
 21
453.8527682111009
 31
0.0
  0
LINE
  5
EE
330
1F
100
AcDbEntity
  8
0
  6
Continuous
 62
     2
100
AcDbLine
 10
82.41066491224501
 20
454.7655015198039
 30
0.0
 11
82.26115860349205
 21
454.7655015198039
 31
0.0
  0
LINE
  5
EF
330
1F
100
AcDbEntity
  8
0
  6
Continuous
 62
     7
100
AcDbLine
 10
77.13022899564612
 20
460.045937436381
 30
0.0
 11
77.13022899564612
 21
459.8964311276499
 31
0.0
  0
LINE
  5
F0
330
1F
100
AcDbEntity
  8
0
  6
Continuous
 62
     2
100
AcDbLine
 10
90.40792351205005
 20
453.8527682111009
 30
0.0
 11
90.40792351205005
 21
454.7655015198039
 31
0.0
  0
LINE
  5
F1
330
1F
100
AcDbEntity
  8
0
  6
Continuous
 62
     2
100
AcDbLine
 10
90.40792351205005
 20
453.8527682111009
 30
0.0
 11
82.41066491224501
 21
453.8527682111009
 31
0.0
  0
LINE
  5
F2
330
1F
100
AcDbEntity
  8
0
  6
Continuous
 62
     2
100
AcDbLine
 10
76.21749568697714
 20
460.045937436381
 30
0.0
 11
76.21749568697714
 21
468.043196036186
 31
0.0
  0
LINE
  5
F3
330
1F
100
AcDbEntity
  8
0
  6
Continuous
 62
     2
100
AcDbLine
 10
68.22845940894013
 20
468.043196036186
 30
0.0
 11
76.21749568697714
 21
468.043196036186
 31
0.0
  0
LINE
  5
F4
330
1F
100
AcDbEntity
  8
0
  6
Continuous
 62
     7
100
AcDbLine
 10
82.41066491224501
 20
453.863731933065
 30
0.0
 11
82.41066491224501
 21
454.7655015198039
 31
0.0
  0
LINE
  5
F5
330
1F
100
AcDbEntity
  8
0
  6
Continuous
 62
     7
100
AcDbLine
 10
76.22845940894013
 20
460.045937436381
 30
0.0
 11
77.13022899564612
 21
460.045937436381
 31
0.0
  0
LINE
  5
F6
330
1F
100
AcDbEntity
  8
0
  6
Continuous
 62
     2
100
AcDbLine
 10
90.40792351205005
 20
454.7655015198039
 30
0.0
 11
82.41066491224501
 21
454.7655015198039
 31
0.0
  0
LINE
  5
F7
330
1F
100
AcDbEntity
  8
0
  6
Continuous
 62
     2
100
AcDbLine
 10
77.81992599566297
 20
674.5655375479804
 30
0.0
 11
77.81992599566297
 21
470.9655015197819
 31
0.0
  0
LINE
  5
F8
330
1F
100
AcDbEntity
  8
0
  6
Continuous
 62
     2
100
AcDbLine
 10
76.21992599566306
 20
470.9655015197819
 30
0.0
 11
76.21992599566306
 21
674.5655375479805
 31
0.0
  0
LINE
  5
F9
330
1F
100
AcDbEntity
  8
0
  6
Continuous
 62
     2
100
AcDbLine
 10
77.4199259956631
 20
470.9655015197819
 30
0.0
 11
77.4199259956631
 21
674.5655375479805
 31
0.0
  0
LINE
  5
FA
330
1F
100
AcDbEntity
  8
0
  6
Continuous
 62
     2
100
AcDbLine
 10
76.61992599566315
 20
674.5655375479804
 30
0.0
 11
76.61992599566315
 21
470.9655015197819
 31
0.0
  0
LINE
  5
FB
330
1F
100
AcDbEntity
  8
0
  6
Continuous
 62
     2
100
AcDbLine
 10
76.21749568697714
 20
677.4878070033776
 30
0.0
 11
76.21749568697714
 21
468.0431960361749
 31
0.0
  0
LINE
  5
FC
330
1F
100
AcDbEntity
  8
0
  6
Continuous
 62
     2
100
AcDbLine
 10
76.21749568697714
 20
468.043196036186
 30
0.0
 11
77.13022899564612
 21
468.043196036207
 31
0.0
  0
LINE
  5
FD
330
1F
100
AcDbEntity
  8
0
  6
Continuous
 62
     7
100
AcDbLine
 10
67.63022899567613
 20
452.263102794598
 30
0.0
 11
67.63022899567613
 21
693.2679002449346
 31
0.0
  0
LINE
  5
FE
330
1F
100
AcDbEntity
  8
0
  6
Continuous
 62
     7
100
AcDbLine
 10
68.22845940894013
 20
677.4850656031821
 30
0.0
 11
68.22845940894103
 21
468.0431960361749
 31
0.0
  0
LINE
  5
FF
330
1F
100
AcDbEntity
  8
0
  6
Continuous
 62
     2
100
AcDbLine
 10
90.40792351205005
 20
691.6782348284622
 30
0.0
 11
90.40792351205005
 21
699.667271106499
 31
0.0
  0
LINE
  5
100
330
1F
100
AcDbEntity
  8
0
  6
Continuous
 62
     2
100
AcDbLine
 10
82.26115860349205
 20
690.76550151976
 30
0.0
 11
82.41066491224501
 21
690.76550151976
 31
0.0
  0
LINE
  5
101
330
1F
100
AcDbEntity
  8
0
  6
Continuous
 62
     7
100
AcDbLine
 10
77.13022899564612
 20
685.6345719119141
 30
0.0
 11
77.13022899564612
 21
685.4850656031821
 31
0.0
  0
LINE
  5
102
330
1F
100
AcDbEntity
  8
0
  6
Continuous
 62
     2
100
AcDbLine
 10
90.40792351205005
 20
690.76550151976
 30
0.0
 11
90.40792351205005
 21
691.6782348284622
 31
0.0
  0
LINE
  5
103
330
1F
100
AcDbEntity
  8
0
  6
Continuous
 62
     2
100
AcDbLine
 10
82.41066491224501
 20
691.6782348284622
 30
0.0
 11
90.40792351205005
 21
691.6782348284622
 31
0.0
  0
LINE
  5
104
330
1F
100
AcDbEntity
  8
0
  6
Continuous
 62
     2
100
AcDbLine
 10
76.21749568697714
 20
677.4878070033776
 30
0.0
 11
76.21749568697714
 21
685.4850656031821
 31
0.0
  0
LINE
  5
105
330
1F
100
AcDbEntity
  8
0
  6
Continuous
 62
     2
100
AcDbLine
 10
77.13022899564612
 20
677.4878070033567
 30
0.0
 11
76.21749568697714
 21
677.4878070033776
 31
0.0
  0
LINE
  5
106
330
1F
100
AcDbEntity
  8
0
  6
Continuous
 62
     2
100
AcDbLine
 10
76.21749568697714
 20
677.4878070033776
 30
0.0
 11
68.22845940894013
 21
677.4878070033776
 31
0.0
  0
LINE
  5
107
330
1F
100
AcDbEntity
  8
0
  6
Continuous
 62
     7
100
AcDbLine
 10
82.41066491224501
 20
690.76550151976
 30
0.0
 11
82.41066491224547
 21
691.667271106499
 31
0.0
  0
LINE
  5
108
330
1F
100
AcDbEntity
  8
0
  6
Continuous
 62
     7
100
AcDbLine
 10
77.13022899564612
 20
685.4850656031821
 30
0.0
 11
76.22845940894013
 21
685.4850656031821
 31
0.0
  0
LINE
  5
109
330
1F
100
AcDbEntity
  8
0
  6
Continuous
 62
     7
100
AcDbLine
 10
152.1802289956611
 20
688.0155015197635
 30
0.0
 11
152.1802289956611
 21
688.7655015197635
 31
0.0
  0
LINE
  5
10A
330
1F
100
AcDbEntity
  8
0
  6
Continuous
 62
     7
100
AcDbLine
 10
156.4302289956611
 20
688.0155015197635
 30
0.0
 11
156.4302289956611
 21
688.7655015197635
 31
0.0
  0
LINE
  5
10B
330
1F
100
AcDbEntity
  8
0
  6
Continuous
 62
     7
100
AcDbLine
 10
115.6300881896191
 20
684.2655015197635
 30
0.0
 11
115.6300881896191
 21
688.2655015197635
 31
0.0
  0
LINE
  5
10C
330
1F
100
AcDbEntity
  8
0
  6
Continuous
 62
     7
100
AcDbLine
 10
141.180823748271
 20
688.2655015197635
 30
0.0
 11
140.9808237482712
 21
688.2155015197635
 31
0.0
  0
LINE
  5
10D
330
1F
100
AcDbEntity
  8
0
  6
Continuous
 62
     7
100
AcDbLine
 10
138.430823748271
 20
688.2155015197634
 30
0.0
 11
138.0308237482711
 21
688.2655015197635
 31
0.0
  0
LINE
  5
10E
330
1F
100
AcDbEntity
  8
0
  6
Continuous
 62
     7
100
AcDbLine
 10
134.930823748271
 20
684.2655015197635
 30
0.0
 11
134.930823748271
 21
688.2655015197635
 31
0.0
  0
LINE
  5
10F
330
1F
100
AcDbEntity
  8
0
  6
Continuous
 62
     7
100
AcDbLine
 10
135.4808237482712
 20
688.2655015197635
 30
0.0
 11
135.4808237482712
 21
684.2655015197635
 31
0.0
  0
LINE
  5
110
330
1F
100
AcDbEntity
  8
0
  6
Continuous
 62
     7
100
AcDbLine
 10
136.2808237482711
 20
684.2655015197635
 30
0.0
 11
136.2808237482711
 21
688.2655015197635
 31
0.0
  0
LINE
  5
111
330
1F
100
AcDbEntity
  8
0
  6
Continuous
 62
     7
100
AcDbLine
 10
114.930088189619
 20
688.2655015197635
 30
0.0
 11
113.680088189619
 21
685.0655015197633
 31
0.0
  0
LINE
  5
112
330
1F
100
AcDbEntity
  8
0
  6
Continuous
 62
     7
100
AcDbLine
 10
113.680088189619
 20
685.0655015197633
 30
0.0
 11
112.430088189619
 21
688.2655015197635
 31
0.0
  0
LINE
  5
113
330
1F
100
AcDbEntity
  8
0
  6
Continuous
 62
     7
100
AcDbLine
 10
111.730088189619
 20
688.2655015197635
 30
0.0
 11
111.730088189619
 21
684.2655015197633
 31
0.0
  0
LINE
  5
114
330
1F
100
AcDbEntity
  8
0
  6
Continuous
 62
     7
100
AcDbLine
 10
110.930088189619
 20
687.7655015197635
 30
0.0
 11
110.930088189619
 21
688.2655015197635
 31
0.0
  0
LINE
  5
115
330
1F
100
AcDbEntity
  8
0
  6
Continuous
 62
     7
100
AcDbLine
 10
112.430088189619
 20
688.2655015197635
 30
0.0
 11
111.730088189619
 21
688.2655015197635
 31
0.0
  0
LINE
  5
116
330
1F
100
AcDbEntity
  8
0
  6
Continuous
 62
     7
100
AcDbLine
 10
115.6300881896191
 20
688.2655015197635
 30
0.0
 11
114.930088189619
 21
688.2655015197635
 31
0.0
  0
LINE
  5
117
330
1F
100
AcDbEntity
  8
0
  6
Continuous
 62
     7
100
AcDbLine
 10
107.8800881896191
 20
688.2655015197635
 30
0.0
 11
107.8800881896191
 21
687.7655015197635
 31
0.0
  0
LINE
  5
118
330
1F
100
AcDbEntity
  8
0
  6
Continuous
 62
     7
100
AcDbLine
 10
134.930823748271
 20
688.2655015197635
 30
0.0
 11
135.4808237482712
 21
688.2655015197635
 31
0.0
  0
LINE
  5
119
330
1F
100
AcDbEntity
  8
0
  6
Continuous
 62
     7
100
AcDbLine
 10
141.5308237482711
 20
688.2655015197633
 30
0.0
 11
141.180823748271
 21
688.2655015197635
 31
0.0
  0
LINE
  5
11A
330
1F
100
AcDbEntity
  8
0
  6
Continuous
 62
     7
100
AcDbLine
 10
141.9808237482712
 20
688.1155015197634
 30
0.0
 11
141.7308237482712
 21
688.2155015197634
 31
0.0
  0
LINE
  5
11B
330
1F
100
AcDbEntity
  8
0
  6
Continuous
 62
     7
100
AcDbLine
 10
156.1802289956611
 20
688.0155015197635
 30
0.0
 11
156.4302289956611
 21
688.0155015197635
 31
0.0
  0
LINE
  5
11C
330
1F
100
AcDbEntity
  8
0
  6
Continuous
 62
     7
100
AcDbLine
 10
141.9808237482712
 20
688.1155015197634
 30
0.0
 11
142.130823748271
 21
688.0155015197633
 31
0.0
  0
LINE
  5
11D
330
1F
100
AcDbEntity
  8
0
  6
Continuous
 62
     7
100
AcDbLine
 10
151.9302289956602
 20
688.0155015197635
 30
0.0
 11
152.1802289956611
 21
688.0155015197635
 31
0.0
  0
LINE
  5
11E
330
1F
100
AcDbEntity
  8
0
  6
Continuous
 62
     7
100
AcDbLine
 10
141.7308237482712
 20
688.2155015197634
 30
0.0
 11
141.5308237482711
 21
688.2655015197633
 31
0.0
  0
LINE
  5
11F
330
1F
100
AcDbEntity
  8
0
  6
Continuous
 62
     7
100
AcDbLine
 10
143.430823748271
 20
688.2655015197635
 30
0.0
 11
146.0308237482711
 21
688.2655015197635
 31
0.0
  0
LINE
  5
120
330
1F
100
AcDbEntity
  8
0
  6
Continuous
 62
     7
100
AcDbLine
 10
138.0308237482711
 20
688.2655015197635
 30
0.0
 11
136.2808237482711
 21
688.2655015197635
 31
0.0
  0
LINE
  5
121
330
1F
100
AcDbEntity
  8
0
  6
Continuous
 62
     7
100
AcDbLine
 10
140.9808237482712
 20
688.2155015197635
 30
0.0
 11
140.7308237482712
 21
688.1155015197634
 31
0.0
  0
LINE
  5
122
330
1F
100
AcDbEntity
  8
0
  6
Continuous
 62
     7
100
AcDbLine
 10
138.7308237482712
 20
688.0655015197635
 30
0.0
 11
138.430823748271
 21
688.2155015197634
 31
0.0
  0
LINE
  5
123
330
1F
100
AcDbEntity
  8
0
  6
Continuous
 62
     7
100
AcDbLine
 10
140.7308237482712
 20
688.1155015197634
 30
0.0
 11
140.5808237482711
 21
688.0155015197635
 31
0.0
  0
LINE
  5
124
330
1F
100
AcDbEntity
  8
0
  6
Continuous
 62
     7
100
AcDbLine
 10
143.430823748271
 20
687.7655015197635
 30
0.0
 11
143.430823748271
 21
688.2655015197635
 31
0.0
  0
LINE
  5
125
330
1F
100
AcDbEntity
  8
0
  6
Continuous
 62
     7
100
AcDbLine
 10
146.0308237482711
 20
688.2655015197635
 30
0.0
 11
146.0308237482711
 21
687.8155015197635
 31
0.0
  0
LINE
  5
126
330
1F
100
AcDbEntity
  8
0
  6
Continuous
 62
     7
100
AcDbLine
 10
138.930823748271
 20
687.8655015197635
 30
0.0
 11
138.7308237482712
 21
688.0655015197635
 31
0.0
  0
LINE
  5
127
330
1F
100
AcDbEntity
  8
0
  6
Continuous
 62
     7
100
AcDbLine
 10
140.5808237482711
 20
688.0155015197635
 30
0.0
 11
140.430823748271
 21
687.8655015197635
 31
0.0
  0
LINE
  5
128
330
1F
100
AcDbEntity
  8
0
  6
Continuous
 62
     7
100
AcDbLine
 10
142.2808237482711
 20
687.8655015197635
 30
0.0
 11
142.130823748271
 21
688.0155015197633
 31
0.0
  0
LINE
  5
129
330
1F
100
AcDbEntity
  8
0
  6
Continuous
 62
     7
100
AcDbLine
 10
138.930823748271
 20
687.8655015197635
 30
0.0
 11
139.130823748271
 21
687.5655015197635
 31
0.0
  0
LINE
  5
12A
330
1F
100
AcDbEntity
  8
0
  6
Continuous
 62
     7
100
AcDbLine
 10
140.430823748271
 20
687.8655015197635
 30
0.0
 11
140.2808237482711
 21
687.6655015197634
 31
0.0
  0
LINE
  5
12B
330
1F
100
AcDbEntity
  8
0
  6
Continuous
 62
     7
100
AcDbLine
 10
146.0308237482711
 20
687.8155015197635
 30
0.0
 11
145.430823748271
 21
686.9655015197635
 31
0.0
  0
LINE
  5
12C
330
1F
100
AcDbEntity
  8
0
  6
Continuous
 62
     7
100
AcDbLine
 10
144.7808237482711
 20
686.8655015197635
 30
0.0
 11
145.430823748271
 21
687.7655015197635
 31
0.0
  0
LINE
  5
12D
330
1F
100
AcDbEntity
  8
0
  6
Continuous
 62
     7
100
AcDbLine
 10
140.9808237482712
 20
687.6655015197636
 30
0.0
 11
141.180823748271
 21
687.7655015197636
 31
0.0
  0
LINE
  5
12E
330
1F
100
AcDbEntity
  8
0
  6
Continuous
 62
     7
100
AcDbLine
 10
141.5308237482711
 20
687.7655015197635
 30
0.0
 11
141.7308237482712
 21
687.6655015197634
 31
0.0
  0
LINE
  5
12F
330
1F
100
AcDbEntity
  8
0
  6
Continuous
 62
     7
100
AcDbLine
 10
109.680088189619
 20
684.2655015197635
 30
0.0
 11
109.680088189619
 21
687.7655015197635
 31
0.0
  0
LINE
  5
130
330
1F
100
AcDbEntity
  8
0
  6
Continuous
 62
     7
100
AcDbLine
 10
137.880823748271
 20
687.7655015197635
 30
0.0
 11
138.180823748271
 21
687.7155015197635
 31
0.0
  0
LINE
  5
131
330
1F
100
AcDbEntity
  8
0
  6
Continuous
 62
     7
100
AcDbLine
 10
107.8800881896191
 20
687.7655015197635
 30
0.0
 11
109.1300881896191
 21
687.7655015197635
 31
0.0
  0
LINE
  5
132
330
1F
100
AcDbEntity
  8
0
  6
Continuous
 62
     7
100
AcDbLine
 10
109.1300881896191
 20
687.7655015197635
 30
0.0
 11
109.1300881896191
 21
684.2655015197633
 31
0.0
  0
LINE
  5
133
330
1F
100
AcDbEntity
  8
0
  6
Continuous
 62
     7
100
AcDbLine
 10
109.1300881896191
 20
684.2655015197633
 30
0.0
 11
109.680088189619
 21
684.2655015197635
 31
0.0
  0
LINE
  5
134
330
1F
100
AcDbEntity
  8
0
  6
Continuous
 62
     7
100
AcDbLine
 10
135.4808237482712
 20
684.2655015197635
 30
0.0
 11
134.930823748271
 21
684.2655015197635
 31
0.0
  0
LINE
  5
135
330
1F
100
AcDbEntity
  8
0
  6
Continuous
 62
     7
100
AcDbLine
 10
141.2308237482712
 20
684.2655015197633
 30
0.0
 11
141.4808237482712
 21
684.2655015197635
 31
0.0
  0
LINE
  5
136
330
1F
100
AcDbEntity
  8
0
  6
Continuous
 62
     7
100
AcDbLine
 10
144.5308237482711
 20
684.2655015197635
 30
0.0
 11
143.930823748271
 21
684.2655015197635
 31
0.0
  0
LINE
  5
137
330
1F
100
AcDbEntity
  8
0
  6
Continuous
 62
     7
100
AcDbLine
 10
152.1802289956611
 20
683.7655015197635
 30
0.0
 11
151.9302289956602
 21
683.7655015197635
 31
0.0
  0
LINE
  5
138
330
1F
100
AcDbEntity
  8
0
  6
Continuous
 62
     7
100
AcDbLine
 10
156.4302289956611
 20
683.7655015197635
 30
0.0
 11
156.1802289956611
 21
683.7655015197635
 31
0.0
  0
LINE
  5
139
330
1F
100
AcDbEntity
  8
0
  6
Continuous
 62
     7
100
AcDbLine
 10
136.8308237482711
 20
684.2655015197635
 30
0.0
 11
136.2808237482711
 21
684.2655015197635
 31
0.0
  0
LINE
  5
13A
330
1F
100
AcDbEntity
  8
0
  6
Continuous
 62
     7
100
AcDbLine
 10
115.1300881896191
 20
684.2655015197633
 30
0.0
 11
115.6300881896191
 21
684.2655015197635
 31
0.0
  0
LINE
  5
13B
330
1F
100
AcDbEntity
  8
0
  6
Continuous
 62
     7
100
AcDbLine
 10
111.730088189619
 20
684.2655015197633
 30
0.0
 11
112.230088189619
 21
684.2655015197635
 31
0.0
  0
LINE
  5
13C
330
1F
100
AcDbEntity
  8
0
  6
Continuous
 62
     7
100
AcDbLine
 10
113.430088189619
 20
684.2655015197633
 30
0.0
 11
113.930088189619
 21
684.2655015197635
 31
0.0
  0
LINE
  5
13D
330
1F
100
AcDbEntity
  8
0
  6
Continuous
 62
     7
100
AcDbLine
 10
152.1802289956611
 20
684.5155015197635
 30
0.0
 11
152.1802289956611
 21
683.7655015197635
 31
0.0
  0
LINE
  5
13E
330
1F
100
AcDbEntity
  8
0
  6
Continuous
 62
     7
100
AcDbLine
 10
115.1300881896191
 20
687.3655015197635
 30
0.0
 11
115.1300881896191
 21
684.2655015197633
 31
0.0
  0
LINE
  5
13F
330
1F
100
AcDbEntity
  8
0
  6
Continuous
 62
     7
100
AcDbLine
 10
112.230088189619
 20
687.3655015197635
 30
0.0
 11
113.430088189619
 21
684.2655015197633
 31
0.0
  0
LINE
  5
140
330
1F
100
AcDbEntity
  8
0
  6
Continuous
 62
     7
100
AcDbLine
 10
141.9808237482712
 20
684.4155015197634
 30
0.0
 11
142.130823748271
 21
684.5155015197635
 31
0.0
  0
LINE
  5
141
330
1F
100
AcDbEntity
  8
0
  6
Continuous
 62
     7
100
AcDbLine
 10
141.4808237482712
 20
684.2655015197635
 30
0.0
 11
141.7308237482712
 21
684.3155015197633
 31
0.0
  0
LINE
  5
142
330
1F
100
AcDbEntity
  8
0
  6
Continuous
 62
     7
100
AcDbLine
 10
141.7308237482712
 20
684.3155015197633
 30
0.0
 11
141.9808237482712
 21
684.4155015197634
 31
0.0
  0
LINE
  5
143
330
1F
100
AcDbEntity
  8
0
  6
Continuous
 62
     7
100
AcDbLine
 10
140.9808237482712
 20
684.3155015197635
 30
0.0
 11
141.2308237482712
 21
684.2655015197633
 31
0.0
  0
LINE
  5
144
330
1F
100
AcDbEntity
  8
0
  6
Continuous
 62
     7
100
AcDbLine
 10
140.5808237482711
 20
684.5155015197635
 30
0.0
 11
140.7308237482712
 21
684.4155015197632
 31
0.0
  0
LINE
  5
145
330
1F
100
AcDbEntity
  8
0
  6
Continuous
 62
     7
100
AcDbLine
 10
140.7308237482712
 20
684.4155015197632
 30
0.0
 11
140.9808237482712
 21
684.3155015197635
 31
0.0
  0
LINE
  5
146
330
1F
100
AcDbEntity
  8
0
  6
Continuous
 62
     7
100
AcDbLine
 10
136.8308237482711
 20
684.2655015197635
 30
0.0
 11
136.8308237482711
 21
685.8655015197634
 31
0.0
  0
LINE
  5
147
330
1F
100
AcDbEntity
  8
0
  6
Continuous
 62
     7
100
AcDbLine
 10
113.930088189619
 20
684.2655015197635
 30
0.0
 11
115.1300881896191
 21
687.3655015197635
 31
0.0
  0
LINE
  5
148
330
1F
100
AcDbEntity
  8
0
  6
Continuous
 62
     7
100
AcDbLine
 10
112.230088189619
 20
684.2655015197635
 30
0.0
 11
112.230088189619
 21
687.3655015197635
 31
0.0
  0
LINE
  5
149
330
1F
100
AcDbEntity
  8
0
  6
Continuous
 62
     7
100
AcDbLine
 10
151.9302289956602
 20
684.5155015197635
 30
0.0
 11
152.1802289956611
 21
684.5155015197635
 31
0.0
  0
LINE
  5
14A
330
1F
100
AcDbEntity
  8
0
  6
Continuous
 62
     7
100
AcDbLine
 10
140.9808237482712
 20
684.8655015197634
 30
0.0
 11
140.7808237482711
 21
685.0155015197633
 31
0.0
  0
LINE
  5
14B
330
1F
100
AcDbEntity
  8
0
  6
Continuous
 62
     7
100
AcDbLine
 10
141.930823748271
 20
685.0155015197635
 30
0.0
 11
141.7308237482712
 21
684.8655015197634
 31
0.0
  0
LINE
  5
14C
330
1F
100
AcDbEntity
  8
0
  6
Continuous
 62
     7
100
AcDbLine
 10
142.430823748271
 20
686.2655015197635
 30
0.0
 11
142.5308237482711
 21
686.0655015197633
 31
0.0
  0
LINE
  5
14D
330
1F
100
AcDbEntity
  8
0
  6
Continuous
 62
     7
100
AcDbLine
 10
142.0808237482711
 20
687.1155015197635
 30
0.0
 11
142.5808237482711
 21
687.1155015197634
 31
0.0
  0
LINE
  5
14E
330
1F
100
AcDbEntity
  8
0
  6
Continuous
 62
     7
100
AcDbLine
 10
142.430823748271
 20
684.8655015197634
 30
0.0
 11
142.5308237482711
 21
685.0655015197635
 31
0.0
  0
LINE
  5
14F
330
1F
100
AcDbEntity
  8
0
  6
Continuous
 62
     7
100
AcDbLine
 10
142.430823748271
 20
686.2655015197635
 30
0.0
 11
142.2808237482711
 21
686.4655015197635
 31
0.0
  0
LINE
  5
150
330
1F
100
AcDbEntity
  8
0
  6
Continuous
 62
     7
100
AcDbLine
 10
137.880823748271
 20
686.3655015197634
 30
0.0
 11
136.8308237482711
 21
686.3655015197634
 31
0.0
  0
LINE
  5
151
330
1F
100
AcDbEntity
  8
0
  6
Continuous
 62
     7
100
AcDbLine
 10
140.9808237482712
 20
686.2655015197635
 30
0.0
 11
141.2308237482712
 21
686.3655015197635
 31
0.0
  0
LINE
  5
152
330
1F
100
AcDbEntity
  8
0
  6
Continuous
 62
     7
100
AcDbLine
 10
141.2308237482712
 20
686.3655015197635
 30
0.0
 11
141.4808237482712
 21
686.3655015197634
 31
0.0
  0
LINE
  5
153
330
1F
100
AcDbEntity
  8
0
  6
Continuous
 62
     7
100
AcDbLine
 10
139.130823748271
 20
686.5655015197635
 30
0.0
 11
138.930823748271
 21
686.2655015197635
 31
0.0
  0
LINE
  5
154
330
1F
100
AcDbEntity
  8
0
  6
Continuous
 62
     7
100
AcDbLine
 10
138.180823748271
 20
686.4155015197634
 30
0.0
 11
137.880823748271
 21
686.3655015197634
 31
0.0
  0
LINE
  5
155
330
1F
100
AcDbEntity
  8
0
  6
Continuous
 62
     7
100
AcDbLine
 10
136.8308237482711
 20
687.7655015197635
 30
0.0
 11
136.8308237482711
 21
686.3655015197634
 31
0.0
  0
LINE
  5
156
330
1F
100
AcDbEntity
  8
0
  6
Continuous
 62
     7
100
AcDbLine
 10
140.7308237482712
 20
686.6655015197634
 30
0.0
 11
140.4808237482712
 21
686.4155015197634
 31
0.0
  0
LINE
  5
157
330
1F
100
AcDbEntity
  8
0
  6
Continuous
 62
     7
100
AcDbLine
 10
138.180823748271
 20
686.4155015197634
 30
0.0
 11
138.430823748271
 21
686.5155015197635
 31
0.0
  0
LINE
  5
158
330
1F
100
AcDbEntity
  8
0
  6
Continuous
 62
     7
100
AcDbLine
 10
140.4808237482712
 20
686.4155015197634
 30
0.0
 11
140.5808237482711
 21
687.1155015197635
 31
0.0
  0
LINE
  5
159
330
1F
100
AcDbEntity
  8
0
  6
Continuous
 62
     7
100
AcDbLine
 10
142.2808237482711
 20
686.4655015197635
 30
0.0
 11
142.130823748271
 21
686.6155015197634
 31
0.0
  0
LINE
  5
15A
330
1F
100
AcDbEntity
  8
0
  6
Continuous
 62
     7
100
AcDbLine
 10
140.0308237482711
 20
686.9155015197634
 30
0.0
 11
139.9808237482712
 21
686.4655015197634
 31
0.0
  0
LINE
  5
15B
330
1F
100
AcDbEntity
  8
0
  6
Continuous
 62
     7
100
AcDbLine
 10
139.130823748271
 20
686.5655015197635
 30
0.0
 11
139.180823748271
 21
686.9155015197634
 31
0.0
  0
LINE
  5
15C
330
1F
100
AcDbEntity
  8
0
  6
Continuous
 62
     7
100
AcDbLine
 10
142.130823748271
 20
686.6155015197634
 30
0.0
 11
141.9808237482712
 21
686.7155015197634
 31
0.0
  0
LINE
  5
15D
330
1F
100
AcDbEntity
  8
0
  6
Continuous
 62
     7
100
AcDbLine
 10
141.930823748271
 20
687.5155015197636
 30
0.0
 11
142.0308237482711
 21
687.3655015197636
 31
0.0
  0
LINE
  5
15E
330
1F
100
AcDbEntity
  8
0
  6
Continuous
 62
     7
100
AcDbLine
 10
140.9808237482712
 20
686.8155015197633
 30
0.0
 11
140.7308237482712
 21
686.6655015197634
 31
0.0
  0
LINE
  5
15F
330
1F
100
AcDbEntity
  8
0
  6
Continuous
 62
     7
100
AcDbLine
 10
138.5808237482711
 20
686.6655015197634
 30
0.0
 11
138.680823748271
 21
686.9155015197634
 31
0.0
  0
LINE
  5
160
330
1F
100
AcDbEntity
  8
0
  6
Continuous
 62
     7
100
AcDbLine
 10
141.9808237482712
 20
686.7155015197634
 30
0.0
 11
141.7308237482712
 21
686.8155015197633
 31
0.0
  0
LINE
  5
161
330
1F
100
AcDbEntity
  8
0
  6
Continuous
 62
     7
100
AcDbLine
 10
141.7308237482712
 20
686.8155015197633
 30
0.0
 11
141.4808237482712
 21
686.8655015197634
 31
0.0
  0
LINE
  5
162
330
1F
100
AcDbEntity
  8
0
  6
Continuous
 62
     7
100
AcDbLine
 10
141.2308237482712
 20
686.8655015197634
 30
0.0
 11
140.9808237482712
 21
686.8155015197633
 31
0.0
  0
LINE
  5
163
330
1F
100
AcDbEntity
  8
0
  6
Continuous
 62
     7
100
AcDbLine
 10
141.180823748271
 20
687.7655015197636
 30
0.0
 11
141.5308237482711
 21
687.7655015197635
 31
0.0
  0
LINE
  5
164
330
1F
100
AcDbEntity
  8
0
  6
Continuous
 62
     7
100
AcDbLine
 10
141.4808237482712
 20
686.8655015197634
 30
0.0
 11
141.2308237482712
 21
686.8655015197634
 31
0.0
  0
LINE
  5
165
330
1F
100
AcDbEntity
  8
0
  6
Continuous
 62
     7
100
AcDbLine
 10
140.5808237482711
 20
687.1155015197635
 30
0.0
 11
140.680823748271
 21
687.3655015197635
 31
0.0
  0
LINE
  5
166
330
1F
100
AcDbEntity
  8
0
  6
Continuous
 62
     7
100
AcDbLine
 10
139.180823748271
 20
687.2155015197634
 30
0.0
 11
139.130823748271
 21
687.5655015197635
 31
0.0
  0
LINE
  5
167
330
1F
100
AcDbEntity
  8
0
  6
Continuous
 62
     7
100
AcDbLine
 10
140.180823748271
 20
687.4655015197635
 30
0.0
 11
140.0808237482711
 21
687.2155015197635
 31
0.0
  0
LINE
  5
168
330
1F
100
AcDbEntity
  8
0
  6
Continuous
 62
     7
100
AcDbLine
 10
138.430823748271
 20
687.6155015197633
 30
0.0
 11
138.5808237482711
 21
687.4655015197634
 31
0.0
  0
LINE
  5
169
330
1F
100
AcDbEntity
  8
0
  6
Continuous
 62
     7
100
AcDbLine
 10
140.2808237482711
 20
687.6655015197634
 30
0.0
 11
140.180823748271
 21
687.4655015197635
 31
0.0
  0
LINE
  5
16A
330
1F
100
AcDbEntity
  8
0
  6
Continuous
 62
     7
100
AcDbLine
 10
138.180823748271
 20
687.7155015197635
 30
0.0
 11
138.430823748271
 21
687.6155015197633
 31
0.0
  0
LINE
  5
16B
330
1F
100
AcDbEntity
  8
0
  6
Continuous
 62
     7
100
AcDbLine
 10
109.680088189619
 20
687.7655015197635
 30
0.0
 11
110.930088189619
 21
687.7655015197635
 31
0.0
  0
LINE
  5
16C
330
1F
100
AcDbEntity
  8
0
  6
Continuous
 62
     7
100
AcDbLine
 10
136.8308237482711
 20
687.7655015197635
 30
0.0
 11
137.880823748271
 21
687.7655015197635
 31
0.0
  0
LINE
  5
16D
330
1F
100
AcDbEntity
  8
0
  6
Continuous
 62
     7
100
AcDbLine
 10
138.680823748271
 20
687.2155015197635
 30
0.0
 11
138.5808237482711
 21
687.4655015197634
 31
0.0
  0
LINE
  5
16E
330
1F
100
AcDbEntity
  8
0
  6
Continuous
 62
     7
100
AcDbLine
 10
140.0808237482711
 20
687.2155015197635
 30
0.0
 11
140.0308237482711
 21
686.9155015197634
 31
0.0
  0
LINE
  5
16F
330
1F
100
AcDbEntity
  8
0
  6
Continuous
 62
     7
100
AcDbLine
 10
140.680823748271
 20
687.3655015197635
 30
0.0
 11
140.7808237482711
 21
687.5155015197635
 31
0.0
  0
LINE
  5
170
330
1F
100
AcDbEntity
  8
0
  6
Continuous
 62
     7
100
AcDbLine
 10
140.7808237482711
 20
687.5155015197635
 30
0.0
 11
140.9808237482712
 21
687.6655015197636
 31
0.0
  0
LINE
  5
171
330
1F
100
AcDbEntity
  8
0
  6
Continuous
 62
     7
100
AcDbLine
 10
139.180823748271
 20
686.9155015197634
 30
0.0
 11
139.180823748271
 21
687.2155015197634
 31
0.0
  0
LINE
  5
172
330
1F
100
AcDbEntity
  8
0
  6
Continuous
 62
     7
100
AcDbLine
 10
138.680823748271
 20
687.2155015197635
 30
0.0
 11
138.680823748271
 21
686.9155015197634
 31
0.0
  0
LINE
  5
173
330
1F
100
AcDbEntity
  8
0
  6
Continuous
 62
     7
100
AcDbLine
 10
141.7308237482712
 20
687.6655015197634
 30
0.0
 11
141.930823748271
 21
687.5155015197636
 31
0.0
  0
LINE
  5
174
330
1F
100
AcDbEntity
  8
0
  6
Continuous
 62
     7
100
AcDbLine
 10
142.0308237482711
 20
687.3655015197636
 30
0.0
 11
142.0808237482711
 21
687.1155015197635
 31
0.0
  0
LINE
  5
175
330
1F
100
AcDbEntity
  8
0
  6
Continuous
 62
     7
100
AcDbLine
 10
138.5808237482711
 20
686.6655015197634
 30
0.0
 11
138.430823748271
 21
686.5155015197635
 31
0.0
  0
LINE
  5
176
330
1F
100
AcDbEntity
  8
0
  6
Continuous
 62
     7
100
AcDbLine
 10
142.0308237482711
 20
685.1655015197634
 30
0.0
 11
141.930823748271
 21
685.0155015197635
 31
0.0
  0
LINE
  5
177
330
1F
100
AcDbEntity
  8
0
  6
Continuous
 62
     7
100
AcDbLine
 10
141.930823748271
 20
686.1155015197635
 30
0.0
 11
142.0308237482711
 21
685.9655015197635
 31
0.0
  0
LINE
  5
178
330
1F
100
AcDbEntity
  8
0
  6
Continuous
 62
     7
100
AcDbLine
 10
140.680823748271
 20
685.1655015197634
 30
0.0
 11
140.5808237482711
 21
685.4155015197634
 31
0.0
  0
LINE
  5
179
330
1F
100
AcDbEntity
  8
0
  6
Continuous
 62
     7
100
AcDbLine
 10
140.180823748271
 20
685.0655015197635
 30
0.0
 11
140.2808237482711
 21
684.8655015197634
 31
0.0
  0
LINE
  5
17A
330
1F
100
AcDbEntity
  8
0
  6
Continuous
 62
     7
100
AcDbLine
 10
140.5808237482711
 20
685.7155015197634
 30
0.0
 11
140.5808237482711
 21
685.4155015197634
 31
0.0
  0
LINE
  5
17B
330
1F
100
AcDbEntity
  8
0
  6
Continuous
 62
     7
100
AcDbLine
 10
140.7808237482711
 20
685.0155015197633
 30
0.0
 11
140.680823748271
 21
685.1655015197634
 31
0.0
  0
LINE
  5
17C
330
1F
100
AcDbEntity
  8
0
  6
Continuous
 62
     7
100
AcDbLine
 10
140.5808237482711
 20
685.7155015197634
 30
0.0
 11
140.680823748271
 21
685.9655015197635
 31
0.0
  0
LINE
  5
17D
330
1F
100
AcDbEntity
  8
0
  6
Continuous
 62
     7
100
AcDbLine
 10
140.0808237482711
 20
685.3155015197635
 30
0.0
 11
140.180823748271
 21
685.0655015197635
 31
0.0
  0
LINE
  5
17E
330
1F
100
AcDbEntity
  8
0
  6
Continuous
 62
     7
100
AcDbLine
 10
139.9808237482712
 20
686.0655015197633
 30
0.0
 11
140.0308237482711
 21
685.6155015197634
 31
0.0
  0
LINE
  5
17F
330
1F
100
AcDbEntity
  8
0
  6
Continuous
 62
     7
100
AcDbLine
 10
140.0308237482711
 20
685.6155015197634
 30
0.0
 11
140.0808237482711
 21
685.3155015197635
 31
0.0
  0
LINE
  5
180
330
1F
100
AcDbEntity
  8
0
  6
Continuous
 62
     7
100
AcDbLine
 10
136.8308237482711
 20
685.8655015197634
 30
0.0
 11
138.0308237482711
 21
685.8655015197634
 31
0.0
  0
LINE
  5
181
330
1F
100
AcDbEntity
  8
0
  6
Continuous
 62
     7
100
AcDbLine
 10
138.0308237482711
 20
685.8655015197634
 30
0.0
 11
138.430823748271
 21
685.9155015197634
 31
0.0
  0
LINE
  5
182
330
1F
100
AcDbEntity
  8
0
  6
Continuous
 62
     7
100
AcDbLine
 10
139.9808237482712
 20
686.4655015197634
 30
0.0
 11
139.9808237482712
 21
686.0655015197633
 31
0.0
  0
LINE
  5
183
330
1F
100
AcDbEntity
  8
0
  6
Continuous
 62
     7
100
AcDbLine
 10
141.7308237482712
 20
686.2655015197633
 30
0.0
 11
141.930823748271
 21
686.1155015197635
 31
0.0
  0
LINE
  5
184
330
1F
100
AcDbEntity
  8
0
  6
Continuous
 62
     7
100
AcDbLine
 10
140.9808237482712
 20
686.2655015197635
 30
0.0
 11
140.7808237482711
 21
686.1155015197635
 31
0.0
  0
LINE
  5
185
330
1F
100
AcDbEntity
  8
0
  6
Continuous
 62
     7
100
AcDbLine
 10
141.4808237482712
 20
686.3655015197634
 30
0.0
 11
141.7308237482712
 21
686.2655015197633
 31
0.0
  0
LINE
  5
186
330
1F
100
AcDbEntity
  8
0
  6
Continuous
 62
     7
100
AcDbLine
 10
142.5308237482711
 20
687.4655015197634
 30
0.0
 11
142.430823748271
 21
687.6655015197634
 31
0.0
  0
LINE
  5
187
330
1F
100
AcDbEntity
  8
0
  6
Continuous
 62
     7
100
AcDbLine
 10
138.7308237482712
 20
686.0655015197633
 30
0.0
 11
138.430823748271
 21
685.9155015197634
 31
0.0
  0
LINE
  5
188
330
1F
100
AcDbEntity
  8
0
  6
Continuous
 62
     7
100
AcDbLine
 10
142.130823748271
 20
685.4155015197634
 30
0.0
 11
142.0308237482711
 21
685.1655015197634
 31
0.0
  0
LINE
  5
189
330
1F
100
AcDbEntity
  8
0
  6
Continuous
 62
     7
100
AcDbLine
 10
142.130823748271
 20
685.7155015197634
 30
0.0
 11
142.130823748271
 21
685.4155015197634
 31
0.0
  0
LINE
  5
18A
330
1F
100
AcDbEntity
  8
0
  6
Continuous
 62
     7
100
AcDbLine
 10
140.680823748271
 20
685.9655015197635
 30
0.0
 11
140.7808237482711
 21
686.1155015197635
 31
0.0
  0
LINE
  5
18B
330
1F
100
AcDbEntity
  8
0
  6
Continuous
 62
     7
100
AcDbLine
 10
138.7308237482712
 20
686.0655015197633
 30
0.0
 11
138.930823748271
 21
686.2655015197635
 31
0.0
  0
LINE
  5
18C
330
1F
100
AcDbEntity
  8
0
  6
Continuous
 62
     7
100
AcDbLine
 10
142.0308237482711
 20
685.9655015197635
 30
0.0
 11
142.130823748271
 21
685.7155015197634
 31
0.0
  0
LINE
  5
18D
330
1F
100
AcDbEntity
  8
0
  6
Continuous
 62
     7
100
AcDbLine
 10
142.5308237482711
 20
685.0655015197635
 30
0.0
 11
142.630823748271
 21
685.3655015197634
 31
0.0
  0
LINE
  5
18E
330
1F
100
AcDbEntity
  8
0
  6
Continuous
 62
     7
100
AcDbLine
 10
142.630823748271
 20
685.7655015197635
 30
0.0
 11
142.5308237482711
 21
686.0655015197633
 31
0.0
  0
LINE
  5
18F
330
1F
100
AcDbEntity
  8
0
  6
Continuous
 62
     7
100
AcDbLine
 10
142.5808237482711
 20
687.1155015197634
 30
0.0
 11
142.5808237482711
 21
687.2155015197634
 31
0.0
  0
LINE
  5
190
330
1F
100
AcDbEntity
  8
0
  6
Continuous
 62
     7
100
AcDbLine
 10
142.630823748271
 20
685.3655015197634
 30
0.0
 11
142.630823748271
 21
685.7655015197635
 31
0.0
  0
LINE
  5
191
330
1F
100
AcDbEntity
  8
0
  6
Continuous
 62
     7
100
AcDbLine
 10
142.5808237482711
 20
687.2155015197634
 30
0.0
 11
142.5308237482711
 21
687.4655015197634
 31
0.0
  0
LINE
  5
192
330
1F
100
AcDbEntity
  8
0
  6
Continuous
 62
     7
100
AcDbLine
 10
145.430823748271
 20
687.7655015197635
 30
0.0
 11
143.430823748271
 21
687.7655015197635
 31
0.0
  0
LINE
  5
193
330
1F
100
AcDbEntity
  8
0
  6
Continuous
 62
     7
100
AcDbLine
 10
144.7808237482711
 20
685.6155015197635
 30
0.0
 11
144.630823748271
 21
685.0155015197635
 31
0.0
  0
LINE
  5
194
330
1F
100
AcDbEntity
  8
0
  6
Continuous
 62
     7
100
AcDbLine
 10
144.4808237482712
 20
686.2655015197635
 30
0.0
 11
144.7808237482711
 21
686.8655015197635
 31
0.0
  0
LINE
  5
195
330
1F
100
AcDbEntity
  8
0
  6
Continuous
 62
     7
100
AcDbLine
 10
144.2808237482711
 20
685.8155015197635
 30
0.0
 11
144.4808237482712
 21
686.2655015197635
 31
0.0
  0
LINE
  5
196
330
1F
100
AcDbEntity
  8
0
  6
Continuous
 62
     7
100
AcDbLine
 10
144.0308237482711
 20
685.0655015197635
 30
0.0
 11
144.2808237482711
 21
685.8155015197635
 31
0.0
  0
LINE
  5
197
330
1F
100
AcDbEntity
  8
0
  6
Continuous
 62
     7
100
AcDbLine
 10
140.2808237482711
 20
684.8655015197634
 30
0.0
 11
140.430823748271
 21
684.6655015197634
 31
0.0
  0
LINE
  5
198
330
1F
100
AcDbEntity
  8
0
  6
Continuous
 62
     7
100
AcDbLine
 10
142.2808237482711
 20
684.6655015197634
 30
0.0
 11
142.430823748271
 21
684.8655015197634
 31
0.0
  0
LINE
  5
199
330
1F
100
AcDbEntity
  8
0
  6
Continuous
 62
     7
100
AcDbLine
 10
141.7308237482712
 20
684.8655015197634
 30
0.0
 11
141.4808237482712
 21
684.7655015197635
 31
0.0
  0
LINE
  5
19A
330
1F
100
AcDbEntity
  8
0
  6
Continuous
 62
     7
100
AcDbLine
 10
141.2308237482712
 20
684.7655015197633
 30
0.0
 11
140.9808237482712
 21
684.8655015197634
 31
0.0
  0
LINE
  5
19B
330
1F
100
AcDbEntity
  8
0
  6
Continuous
 62
     7
100
AcDbLine
 10
141.4808237482712
 20
684.7655015197635
 30
0.0
 11
141.2308237482712
 21
684.7655015197633
 31
0.0
  0
LINE
  5
19C
330
1F
100
AcDbEntity
  8
0
  6
Continuous
 62
     7
100
AcDbLine
 10
140.430823748271
 20
684.6655015197634
 30
0.0
 11
140.5808237482711
 21
684.5155015197635
 31
0.0
  0
LINE
  5
19D
330
1F
100
AcDbEntity
  8
0
  6
Continuous
 62
     7
100
AcDbLine
 10
142.130823748271
 20
684.5155015197635
 30
0.0
 11
142.2808237482711
 21
684.6655015197634
 31
0.0
  0
LINE
  5
19E
330
1F
100
AcDbEntity
  8
0
  6
Continuous
 62
     7
100
AcDbLine
 10
145.0308237482711
 20
686.2155015197635
 30
0.0
 11
144.7808237482711
 21
685.6155015197635
 31
0.0
  0
LINE
  5
19F
330
1F
100
AcDbEntity
  8
0
  6
Continuous
 62
     7
100
AcDbLine
 10
145.430823748271
 20
686.9655015197635
 30
0.0
 11
145.0308237482711
 21
686.2155015197635
 31
0.0
  0
LINE
  5
1A0
330
1F
100
AcDbEntity
  8
0
  6
Continuous
 62
     7
100
AcDbLine
 10
144.630823748271
 20
685.0155015197635
 30
0.0
 11
144.5308237482711
 21
684.2655015197635
 31
0.0
  0
LINE
  5
1A1
330
1F
100
AcDbEntity
  8
0
  6
Continuous
 62
     7
100
AcDbLine
 10
143.930823748271
 20
684.2655015197635
 30
0.0
 11
144.0308237482711
 21
685.0655015197635
 31
0.0
  0
LINE
  5
1A2
330
1F
100
AcDbEntity
  8
0
  6
Continuous
 62
     7
100
AcDbLine
 10
156.4302289956611
 20
684.5155015197635
 30
0.0
 11
156.4302289956611
 21
683.7655015197635
 31
0.0
  0
LINE
  5
1A3
330
1F
100
AcDbEntity
  8
0
  6
Continuous
 62
     7
100
AcDbLine
 10
155.9302289956611
 20
685.8905015197635
 30
0.0
 11
154.4708797042631
 21
685.8905015197635
 31
0.0
  0
LINE
  5
1A4
330
1F
100
AcDbEntity
  8
0
  6
Continuous
 62
     7
100
AcDbLine
 10
156.1802289956611
 20
684.5155015197635
 30
0.0
 11
156.4302289956611
 21
684.5155015197635
 31
0.0
  0
LINE
  5
1A5
330
1F
100
AcDbEntity
  8
0
  6
Continuous
 62
     7
100
AcDbLine
 10
154.4708797042631
 20
686.6405015197635
 30
0.0
 11
155.9302289956611
 21
686.6405015197635
 31
0.0
  0
LINE
  5
1A6
330
1F
100
AcDbEntity
  8
0
  6
Continuous
 62
     7
100
AcDbLine
 10
155.9302289956611
 20
686.6405015197635
 30
0.0
 11
155.9302289956611
 21
685.8905015197635
 31
0.0
  0
LINE
  5
1A7
330
1F
100
AcDbEntity
  8
0
  6
Continuous
 62
     7
100
AcDbLine
 10
142.430823748271
 20
687.6655015197634
 30
0.0
 11
142.2808237482711
 21
687.8655015197635
 31
0.0
  0
LINE
  5
1A8
330
1F
100
AcDbEntity
  8
0
  6
Continuous
 62
     7
100
AcDbLine
 10
152.1802289956611
 20
688.7655015197635
 30
0.0
 11
151.9302289956602
 21
688.7655015197635
 31
0.0
  0
LINE
  5
1A9
330
1F
100
AcDbEntity
  8
0
  6
Continuous
 62
     7
100
AcDbLine
 10
156.4302289956611
 20
688.7655015197635
 30
0.0
 11
156.1802289956611
 21
688.7655015197635
 31
0.0
  0
LINE
  5
1AA
330
1F
100
AcDbEntity
  8
0
  6
Continuous
 62
     7
100
AcDbLine
 10
96.15522703994907
 20
685.025549476561
 30
0.0
 11
96.15522703994907
 21
687.505453562966
 31
0.0
  0
LINE
  5
1AB
330
1F
100
AcDbEntity
  8
0
  6
Continuous
 62
     7
100
AcDbLine
 10
105.717553496306
 20
686.1572283215075
 30
0.0
 11
99.40522703994907
 21
682.5155015197635
 31
0.0
  0
LINE
  5
1AC
330
1F
100
AcDbEntity
  8
0
  6
Continuous
 62
     7
100
AcDbLine
 10
101.6552270399491
 20
686.0155015197635
 30
0.0
 11
101.6552270399491
 21
684.8814789192497
 31
0.0
  0
LINE
  5
1AD
330
1F
100
AcDbEntity
  8
0
  6
Continuous
 62
     7
100
AcDbLine
 10
105.8174979870041
 20
685.9839912042978
 30
0.0
 11
99.40522703994907
 21
682.2846041194588
 31
0.0
  0
LINE
  5
1AE
330
1F
100
AcDbEntity
  8
0
  6
Continuous
 62
     7
100
AcDbLine
 10
102.530157653322
 20
684.809003080049
 30
0.0
 11
101.530157653322
 21
684.2320800031259
 31
0.0
  0
LINE
  5
1AF
330
1F
100
AcDbEntity
  8
0
  6
Continuous
 62
     7
100
AcDbLine
 10
101.6552270399491
 20
684.8814789192497
 30
0.0
 11
102.280296426577
 21
685.2420958730729
 31
0.0
  0
LINE
  5
1B0
330
1F
100
AcDbEntity
  8
0
  6
Continuous
 62
     7
100
AcDbLine
 10
102.4052270399491
 20
686.0155015197635
 30
0.0
 11
101.6552270399491
 21
686.0155015197635
 31
0.0
  0
LINE
  5
1B1
330
1F
100
AcDbEntity
  8
0
  6
Continuous
 62
     7
100
AcDbLine
 10
110.930088189619
 20
688.2655015197635
 30
0.0
 11
107.8800881896191
 21
688.2655015197635
 31
0.0
  0
LINE
  5
1B2
330
1F
100
AcDbEntity
  8
0
  6
Continuous
 62
     7
100
AcDbLine
 10
99.40522703994907
 20
682.5155015197635
 30
0.0
 11
93.09290058359306
 21
686.1572283215075
 31
0.0
  0
LINE
  5
1B3
330
1F
100
AcDbEntity
  8
0
  6
Continuous
 62
     7
100
AcDbLine
 10
99.40522703994907
 20
682.2846041194588
 30
0.0
 11
92.99295609289516
 21
685.9839912042975
 31
0.0
  0
LINE
  5
1B4
330
1F
100
AcDbEntity
  8
0
  6
Continuous
 62
     7
100
AcDbLine
 10
99.03029642657702
 20
683.2224646185105
 30
0.0
 11
97.40536581320498
 21
684.1599245877637
 31
0.0
  0
LINE
  5
1B5
330
1F
100
AcDbEntity
  8
0
  6
Continuous
 62
     7
100
AcDbLine
 10
97.65522703994907
 20
684.593017380788
 30
0.0
 11
99.28015765332202
 21
683.655557411535
 31
0.0
  0
LINE
  5
1B6
330
1F
100
AcDbEntity
  8
0
  6
Continuous
 62
     7
100
AcDbLine
 10
101.1552270399491
 20
684.4486263996381
 30
0.0
 11
101.1552270399491
 21
688.082376639889
 31
0.0
  0
LINE
  5
1B7
330
1F
100
AcDbEntity
  8
0
  6
Continuous
 62
     7
100
AcDbLine
 10
98.65522703994907
 20
687.5645396254403
 30
0.0
 11
98.65522703994907
 21
685.0261903242383
 31
0.0
  0
LINE
  5
1B8
330
1F
100
AcDbEntity
  8
0
  6
Continuous
 62
     7
100
AcDbLine
 10
100.1552270399491
 20
687.5645396254403
 30
0.0
 11
100.1552270399491
 21
683.8717033227149
 31
0.0
  0
LINE
  5
1B9
330
1F
100
AcDbEntity
  8
0
  6
Continuous
 62
     7
100
AcDbLine
 10
100.6552270399491
 20
683.871703322715
 30
0.0
 11
100.6552270399491
 21
688.6889145037896
 31
0.0
  0
LINE
  5
1BA
330
1F
100
AcDbEntity
  8
0
  6
Continuous
 62
     7
100
AcDbLine
 10
98.15522703994998
 20
688.6889145037896
 30
0.0
 11
98.15522703994907
 21
685.0261903242383
 31
0.0
  0
LINE
  5
1BB
330
1F
100
AcDbEntity
  8
0
  6
Continuous
 62
     7
100
AcDbLine
 10
92.99295609289516
 20
686.5470118352293
 30
0.0
 11
99.40522703994907
 21
690.246398920068
 31
0.0
  0
LINE
  5
1BC
330
1F
100
AcDbEntity
  8
0
  6
Continuous
 62
     7
100
AcDbLine
 10
100.284401777232
 20
688.7882768334675
 30
0.0
 11
99.40522703994907
 21
687.2655015197635
 31
0.0
  0
LINE
  5
1BD
330
1F
100
AcDbEntity
  8
0
  6
Continuous
 62
     7
100
AcDbLine
 10
99.40522703994907
 20
690.0155015197635
 30
0.0
 11
105.717553496306
 21
686.3737747180196
 31
0.0
  0
LINE
  5
1BE
330
1F
100
AcDbEntity
  8
0
  6
Continuous
 62
     7
100
AcDbLine
 10
100.1552270399491
 20
687.5645396254403
 30
0.0
 11
99.51348021542208
 21
686.4530015197635
 31
0.0
  0
LINE
  5
1BF
330
1F
100
AcDbEntity
  8
0
  6
Continuous
 62
     7
100
AcDbLine
 10
101.6552270399491
 20
687.6495241202776
 30
0.0
 11
101.6552270399491
 21
686.5155015197635
 31
0.0
  0
LINE
  5
1C0
330
1F
100
AcDbEntity
  8
0
  6
Continuous
 62
     7
100
AcDbLine
 10
99.40522703994907
 20
690.246398920068
 30
0.0
 11
105.8174979870041
 21
686.5470118352291
 31
0.0
  0
LINE
  5
1C1
330
1F
100
AcDbEntity
  8
0
  6
Continuous
 62
     7
100
AcDbLine
 10
101.530157653322
 20
688.2989230364014
 30
0.0
 11
102.530157653322
 21
687.721999959478
 31
0.0
  0
LINE
  5
1C2
330
1F
100
AcDbEntity
  8
0
  6
Continuous
 62
     7
100
AcDbLine
 10
102.280296426577
 20
687.288907166454
 30
0.0
 11
101.6552270399491
 21
687.6495241202776
 31
0.0
  0
LINE
  5
1C3
330
1F
100
AcDbEntity
  8
0
  6
Continuous
 62
     7
100
AcDbLine
 10
101.6552270399491
 20
686.5155015197635
 30
0.0
 11
102.4052270399491
 21
686.5155015197635
 31
0.0
  0
LINE
  5
1C4
330
1F
100
AcDbEntity
  8
0
  6
Continuous
 62
     7
100
AcDbLine
 10
98.52605230266704
 20
688.7882768334676
 30
0.0
 11
99.40522703994907
 21
687.2655015197635
 31
0.0
  0
LINE
  5
1C5
330
1F
100
AcDbEntity
  8
0
  6
Continuous
 62
     7
100
AcDbLine
 10
93.09290058359306
 20
686.3737747180198
 30
0.0
 11
99.40522703994907
 21
690.0155015197635
 31
0.0
  0
LINE
  5
1C6
330
1F
100
AcDbEntity
  8
0
  6
Continuous
 62
     7
100
AcDbLine
 10
99.29697386447606
 20
686.4530015197635
 30
0.0
 11
98.65522703994907
 21
687.5645396254403
 31
0.0
  0
LINE
  5
1C7
330
1F
100
AcDbEntity
  8
0
  6
Continuous
 62
     7
100
AcDbLine
 10
97.65522703994907
 20
688.082376639889
 30
0.0
 11
97.65522703994907
 21
684.593017380788
 31
0.0
  0
LINE
  5
1C8
330
1F
100
AcDbEntity
  8
0
  6
Continuous
 62
     7
100
AcDbLine
 10
97.15522703994907
 20
684.593017380788
 30
0.0
 11
97.15522703994907
 21
688.082376639889
 31
0.0
  0
LINE
  5
1C9
330
1F
100
AcDbEntity
  8
0
  6
Continuous
 62
     7
100
AcDbLine
 10
96.65522703994907
 20
687.505453562966
 30
0.0
 11
96.65522703994907
 21
685.025549476561
 31
0.0
  0
LINE
  5
1CA
330
1F
100
AcDbEntity
  8
0
  6
Continuous
 62
     2
100
AcDbLine
 10
158.8525344792561
 20
453.8527682110699
 30
0.0
 11
90.40792351204504
 21
453.8527682110699
 31
0.0
  0
LINE
  5
1CB
330
1F
100
AcDbEntity
  8
0
  6
Continuous
 62
     7
100
AcDbLine
 10
154.130228995657
 20
553.7655015197649
 30
0.0
 11
95.13022899565703
 21
553.765501519762
 31
0.0
  0
LINE
  5
1CC
330
1F
100
AcDbEntity
  8
0
  6
Continuous
 62
     7
100
AcDbLine
 10
158.1302289956611
 20
473.7655015197651
 30
0.0
 11
158.130228995657
 21
549.7655015197649
 31
0.0
  0
LINE
  5
1CD
330
1F
100
AcDbEntity
  8
0
  6
Continuous
 62
     7
100
AcDbLine
 10
95.63022899565908
 20
513.765501519761
 30
0.0
 11
95.63022899565908
 21
505.765501519761
 31
0.0
  0
LINE
  5
1CE
330
1F
100
AcDbEntity
  8
0
  6
Continuous
 62
     7
100
AcDbLine
 10
95.13022899566113
 20
469.7655015197619
 30
0.0
 11
154.1302289956611
 21
469.7655015197651
 31
0.0
  0
LINE
  5
1CF
330
1F
100
AcDbEntity
  8
0
  6
Continuous
 62
     7
100
AcDbLine
 10
91.13022899565703
 20
549.765501519762
 30
0.0
 11
91.13022899566113
 21
473.7655015197619
 31
0.0
  0
LINE
  5
1D0
330
1F
100
AcDbEntity
  8
0
  6
Continuous
 62
     7
100
AcDbLine
 10
153.6302289956591
 20
505.7655015197651
 30
0.0
 11
153.6302289956591
 21
513.765501519765
 31
0.0
  0
LINE
  5
1D1
330
1F
100
AcDbEntity
  8
1
  6
Continuous
 62
     7
100
AcDbLine
 10
271.0697618046423
 20
445.2655015197998
 30
0.0
 11
291.4884494543624
 21
446.057092154167
 31
0.0
  0
LINE
  5
1D2
330
1F
100
AcDbEntity
  8
0
  6
Continuous
 62
     7
100
AcDbLine
 10
84.630228995675
 20
678.2655015197607
 30
0.0
 11
164.630228995675
 21
678.2655015197655
 31
0.0
  0
LINE
  5
1D3
330
1F
100
AcDbEntity
  8
0
  6
Continuous
 62
     7
100
AcDbLine
 10
170.6302289956761
 20
672.2655015197657
 30
0.0
 11
170.6302289956811
 21
582.2655015197657
 31
0.0
  0
LINE
  5
1D4
330
1F
100
AcDbEntity
  8
0
  6
Continuous
 62
     7
100
AcDbLine
 10
78.63022899568114
 20
582.2655015197604
 30
0.0
 11
78.63022899567613
 21
672.2655015197604
 31
0.0
  0
LINE
  5
1D5
330
1F
100
AcDbEntity
  8
0
  6
Continuous
 62
     7
100
AcDbLine
 10
88.13022899565499
 20
633.2655015197604
 30
0.0
 11
88.13022899565499
 21
620.2655015197604
 31
0.0
  0
LINE
  5
1D6
330
1F
100
AcDbEntity
  8
0
  6
Continuous
 62
     7
100
AcDbLine
 10
161.130228995655
 20
620.2655015197647
 30
0.0
 11
161.130228995655
 21
633.2655015197647
 31
0.0
  0
LINE
  5
1D7
330
1F
100
AcDbEntity
  8
0
  6
Continuous
 62
     7
100
AcDbLine
 10
164.6302289956811
 20
576.2655015197654
 30
0.0
 11
84.63022899568114
 21
576.2655015197607
 31
0.0
  0
ARC
  5
1D8
330
1F
100
AcDbEntity
  8
0
  6
Continuous
 62
     7
100
AcDbCircle
 10
291.0697618046208
 20
691.4848746073864
 30
0.0
 40
8.0
100
AcDbArc
 50
0.0
 51
86.99999999999974
  0
ARC
  5
1D9
330
1F
100
AcDbEntity
  8
0
  6
Continuous
 62
     7
100
AcDbCircle
 10
291.0697618046208
 20
677.2944467823017
 30
0.0
 40
8.0
100
AcDbArc
 50
0.0
 51
88.49999999999889
  0
ARC
  5
1DA
330
1F
100
AcDbEntity
  8
0
  6
Continuous
 62
     7
100
AcDbCircle
 10
291.0697618044188
 20
454.046128432204
 30
0.0
 40
8.00000000000043
100
AcDbArc
 50
273.0000000000001
 51
0.0
  0
ARC
  5
1DB
330
1F
100
AcDbEntity
  8
0
  6
Continuous
 62
     7
100
AcDbCircle
 10
291.0697618044188
 20
468.236556257289
 30
0.0
 40
8.00000000000064
100
AcDbArc
 50
271.5000000000014
 51
359.9999999999927
  0
ARC
  5
1DC
330
1F
100
AcDbEntity
  8
0
  6
Continuous
 62
     2
100
AcDbCircle
 10
172.8405319956601
 20
674.5655375479804
 30
0.0
 40
0.2000000000000171
100
AcDbArc
 50
0.0
 51
90.0
  0
ARC
  5
1DD
330
1F
100
AcDbEntity
  8
0
  6
Continuous
 62
     7
100
AcDbCircle
 10
93.15536589027897
 20
686.2655015197635
 30
0.0
 40
0.3249999999999253
100
AcDbArc
 50
119.9816393687966
 51
180.0
  0
ARC
  5
1DE
330
1F
100
AcDbEntity
  8
0
  6
Continuous
 62
     7
100
AcDbCircle
 10
172.1302289956747
 20
690.76550151976
 30
0.0
 40
5.130929607845928
100
AcDbArc
 50
270.0000000000032
 51
180.0
  0
ARC
  5
1DF
330
1F
100
AcDbEntity
  8
0
  6
Continuous
 62
     7
100
AcDbCircle
 10
172.1302289956643
 20
690.7655015197706
 30
0.0
 40
5.280435916588203
100
AcDbArc
 50
180.0000000001147
 51
270.0000000001159
  0
ARC
  5
1E0
330
1F
100
AcDbEntity
  8
0
  6
Continuous
 62
     2
100
AcDbCircle
 10
172.1302289956747
 20
690.76550151976
 30
0.0
 40
13.27769451640361
100
AcDbArc
 50
180.0
 51
270.0000000000013
  0
ARC
  5
1E1
330
1F
100
AcDbEntity
  8
0
  6
Continuous
 62
     2
100
AcDbCircle
 10
172.8405319956601
 20
674.5655375479804
 30
0.0
 40
0.2000000000000455
100
AcDbArc
 50
90.0
 51
179.9999999999674
  0
ARC
  5
1E2
330
1F
100
AcDbEntity
  8
0
  6
Continuous
 62
     2
100
AcDbCircle
 10
171.6405319956612
 20
674.5655375479804
 30
0.0
 40
0.1999999999988802
100
AcDbArc
 50
0.0
 51
179.9999999999674
  0
ARC
  5
1E3
330
1F
100
AcDbEntity
  8
0
  6
Continuous
 62
     2
100
AcDbCircle
 10
172.8405319956601
 20
470.9655015197819
 30
0.0
 40
0.1999999999988802
100
AcDbArc
 50
180.0
 51
0.0
  0
ARC
  5
1E4
330
1F
100
AcDbEntity
  8
0
  6
Continuous
 62
     2
100
AcDbCircle
 10
171.6405319956612
 20
470.9655015197819
 30
0.0
 40
0.2000000000001023
100
AcDbArc
 50
180.0
 51
0.0
  0
ARC
  5
1E5
330
1F
100
AcDbEntity
  8
0
  6
Continuous
 62
     7
100
AcDbCircle
 10
172.130228995675
 20
454.7655015198039
 30
0.0
 40
5.1309296078459
100
AcDbArc
 50
180.0
 51
90.0
  0
ARC
  5
1E6
330
1F
100
AcDbEntity
  8
0
  6
Continuous
 62
     7
100
AcDbCircle
 10
172.1302289956641
 20
454.765501519793
 30
0.0
 40
5.280435916587976
100
AcDbArc
 50
89.99999999988188
 51
179.9999999998822
  0
ARC
  5
1E7
330
1F
100
AcDbEntity
  8
0
  6
Continuous
 62
     2
100
AcDbCircle
 10
172.130228995675
 20
454.7655015198039
 30
0.0
 40
13.27769451640313
100
AcDbArc
 50
90.0
 51
180.0
  0
ARC
  5
1E8
330
1F
100
AcDbEntity
  8
0
  6
Continuous
 62
     7
100
AcDbCircle
 10
77.13022899564612
 20
454.7655015198039
 30
0.0
 40
5.130929607846042
100
AcDbArc
 50
90.0
 51
0.0
  0
ARC
  5
1E9
330
1F
100
AcDbEntity
  8
0
  6
Continuous
 62
     7
100
AcDbCircle
 10
77.13022899565703
 20
454.765501519793
 30
0.0
 40
5.280435916587976
100
AcDbArc
 50
0.00000000011781
 51
90.00000000011842
  0
ARC
  5
1EA
330
1F
100
AcDbEntity
  8
0
  6
Continuous
 62
     2
100
AcDbCircle
 10
77.13022899564612
 20
454.7655015198039
 30
0.0
 40
13.27769451640393
100
AcDbArc
 50
0.0
 51
90.0
  0
ARC
  5
1EB
330
1F
100
AcDbEntity
  8
0
  6
Continuous
 62
     2
100
AcDbCircle
 10
77.61992599566315
 20
470.9655015197819
 30
0.0
 40
0.2000000000000455
100
AcDbArc
 50
180.0
 51
0.0
  0
ARC
  5
1EC
330
1F
100
AcDbEntity
  8
0
  6
Continuous
 62
     2
100
AcDbCircle
 10
76.4199259956631
 20
470.9655015197819
 30
0.0
 40
0.2000000000000455
100
AcDbArc
 50
180.0
 51
0.0
  0
ARC
  5
1ED
330
1F
100
AcDbEntity
  8
0
  6
Continuous
 62
     2
100
AcDbCircle
 10
77.61992599566315
 20
674.5655375479804
 30
0.0
 40
0.1999999999998181
100
AcDbArc
 50
0.0
 51
179.9999999999674
  0
ARC
  5
1EE
330
1F
100
AcDbEntity
  8
0
  6
Continuous
 62
     2
100
AcDbCircle
 10
76.4199259956631
 20
674.5655375479804
 30
0.0
 40
0.2000000000000455
100
AcDbArc
 50
0.0
 51
179.9999999999674
  0
ARC
  5
1EF
330
1F
100
AcDbEntity
  8
0
  6
Continuous
 62
     7
100
AcDbCircle
 10
77.13022899564612
 20
690.76550151976
 30
0.0
 40
5.130929607845928
100
AcDbArc
 50
0.0
 51
270.0
  0
ARC
  5
1F0
330
1F
100
AcDbEntity
  8
0
  6
Continuous
 62
     7
100
AcDbCircle
 10
77.13022899565703
 20
690.7655015197706
 30
0.0
 40
5.280435916588544
100
AcDbArc
 50
269.9999999998816
 51
359.9999999998853
  0
ARC
  5
1F1
330
1F
100
AcDbEntity
  8
0
  6
Continuous
 62
     2
100
AcDbCircle
 10
77.13022899564612
 20
690.76550151976
 30
0.0
 40
13.27769451640336
100
AcDbArc
 50
270.0
 51
0.0
  0
ARC
  5
1F2
330
1F
100
AcDbEntity
  8
0
  6
Continuous
 62
     7
100
AcDbCircle
 10
151.9302289956602
 20
686.2655015197635
 30
0.0
 40
2.5
100
AcDbArc
 50
90.0
 51
270.0
  0
ARC
  5
1F3
330
1F
100
AcDbEntity
  8
0
  6
Continuous
 62
     7
100
AcDbCircle
 10
156.1802289956611
 20
686.2655015197635
 30
0.0
 40
2.5
100
AcDbArc
 50
90.0
 51
270.0
  0
ARC
  5
1F4
330
1F
100
AcDbEntity
  8
0
  6
Continuous
 62
     7
100
AcDbCircle
 10
151.9302289956602
 20
686.2655015197635
 30
0.0
 40
1.75
100
AcDbArc
 50
90.0
 51
270.0
  0
ARC
  5
1F5
330
1F
100
AcDbEntity
  8
0
  6
Continuous
 62
     7
100
AcDbCircle
 10
156.1802289956611
 20
686.2655015197635
 30
0.0
 40
1.75
100
AcDbArc
 50
90.0
 51
167.6263748838174
  0
ARC
  5
1F6
330
1F
100
AcDbEntity
  8
0
  6
Continuous
 62
     7
100
AcDbCircle
 10
156.1802289956611
 20
686.2655015197635
 30
0.0
 40
1.750000000000825
100
AcDbArc
 50
192.3736251161826
 51
270.0
  0
ARC
  5
1F7
330
1F
100
AcDbEntity
  8
0
  6
Continuous
 62
     7
100
AcDbCircle
 10
102.4052270399491
 20
685.025549476561
 30
0.0
 40
0.2500000000000727
100
AcDbArc
 50
299.9816393689726
 51
119.9816393688146
  0
ARC
  5
1F8
330
1F
100
AcDbEntity
  8
0
  6
Continuous
 62
     7
100
AcDbCircle
 10
101.4052270399491
 20
684.4486263996381
 30
0.0
 40
0.25
100
AcDbArc
 50
180.0
 51
299.9816393689466
  0
ARC
  5
1F9
330
1F
100
AcDbEntity
  8
0
  6
Continuous
 62
     7
100
AcDbCircle
 10
100.4052270399491
 20
683.871703322715
 30
0.0
 40
0.25
100
AcDbArc
 50
180.0000000000261
 51
0.0
  0
ARC
  5
1FA
330
1F
100
AcDbEntity
  8
0
  6
Continuous
 62
     7
100
AcDbCircle
 10
105.6550881896192
 20
686.2655015197635
 30
0.0
 40
0.3250000000002681
100
AcDbArc
 50
299.9816393689816
 51
60.01836063101846
  0
ARC
  5
1FB
330
1F
100
AcDbEntity
  8
0
  6
Continuous
 62
     7
100
AcDbCircle
 10
99.15522703994907
 20
683.4390110150227
 30
0.0
 40
0.249999999999942
100
AcDbArc
 50
240.0183606312357
 51
60.0183606310552
  0
ARC
  5
1FC
330
1F
100
AcDbEntity
  8
0
  6
Continuous
 62
     7
100
AcDbCircle
 10
97.65522703994907
 20
684.593017380788
 30
0.0
 40
0.5
100
AcDbArc
 50
180.0
 51
240.0183606312162
  0
ARC
  5
1FD
330
1F
100
AcDbEntity
  8
0
  6
Continuous
 62
     7
100
AcDbCircle
 10
98.40522703994907
 20
685.0261903242383
 30
0.0
 40
0.25
100
AcDbArc
 50
180.0
 51
0.0
  0
ARC
  5
1FE
330
1F
100
AcDbEntity
  8
0
  6
Continuous
 62
     7
100
AcDbCircle
 10
96.40522703994907
 20
685.025549476561
 30
0.0
 40
0.25
100
AcDbArc
 50
180.0
 51
0.0
  0
ARC
  5
1FF
330
1F
100
AcDbEntity
  8
0
  6
Continuous
 62
     7
100
AcDbCircle
 10
93.15536589027897
 20
686.2655015197635
 30
0.0
 40
0.3249999999998181
100
AcDbArc
 50
180.0
 51
240.0183606312134
  0
ARC
  5
200
330
1F
100
AcDbEntity
  8
0
  6
Continuous
 62
     7
100
AcDbCircle
 10
102.4052270399491
 20
686.2655015197635
 30
0.0
 40
0.25
100
AcDbArc
 50
270.0
 51
90.0
  0
ARC
  5
201
330
1F
100
AcDbEntity
  8
0
  6
Continuous
 62
     7
100
AcDbCircle
 10
96.40522703994907
 20
687.505453562966
 30
0.0
 40
0.25
100
AcDbArc
 50
0.0
 51
180.0
  0
ARC
  5
202
330
1F
100
AcDbEntity
  8
0
  6
Continuous
 62
     7
100
AcDbCircle
 10
97.40522703994907
 20
688.082376639889
 30
0.0
 40
0.25
100
AcDbArc
 50
0.0
 51
180.0
  0
ARC
  5
203
330
1F
100
AcDbEntity
  8
0
  6
Continuous
 62
     7
100
AcDbCircle
 10
98.35395169930598
 20
688.6889145037896
 30
0.0
 40
0.1987246593563076
100
AcDbArc
 50
29.9999999999493
 51
180.0
  0
ARC
  5
204
330
1F
100
AcDbEntity
  8
0
  6
Continuous
 62
     7
100
AcDbCircle
 10
93.15536589027897
 20
686.2655015197635
 30
0.0
 40
0.1250000000001111
100
AcDbArc
 50
119.9816393686671
 51
240.0183606312288
  0
ARC
  5
205
330
1F
100
AcDbEntity
  8
0
  6
Continuous
 62
     7
100
AcDbCircle
 10
102.4052270399491
 20
687.505453562966
 30
0.0
 40
0.249999999999675
100
AcDbArc
 50
240.0183606311854
 51
60.01836063104044
  0
ARC
  5
206
330
1F
100
AcDbEntity
  8
0
  6
Continuous
 62
     7
100
AcDbCircle
 10
101.4052270399491
 20
688.082376639889
 30
0.0
 40
0.2500000000004666
100
AcDbArc
 50
60.01836063107948
 51
180.0
  0
ARC
  5
207
330
1F
100
AcDbEntity
  8
0
  6
Continuous
 62
     7
100
AcDbCircle
 10
100.4565023805931
 20
688.6889145037896
 30
0.0
 40
0.198724659356003
100
AcDbArc
 50
0.0
 51
150.0000000000832
  0
ARC
  5
208
330
1F
100
AcDbEntity
  8
0
  6
Continuous
 62
     7
100
AcDbCircle
 10
99.40522703994907
 20
686.5155015197635
 30
0.0
 40
0.124999999999961
100
AcDbArc
 50
210.0000000000103
 51
329.9999999999897
  0
ARC
  5
209
330
1F
100
AcDbEntity
  8
0
  6
Continuous
 62
     7
100
AcDbCircle
 10
105.6550881896192
 20
686.2655015197635
 30
0.0
 40
0.1250000000001575
100
AcDbArc
 50
299.9816393691211
 51
60.01836063093106
  0
ARC
  5
20A
330
1F
100
AcDbEntity
  8
0
  6
Continuous
 62
     7
100
AcDbCircle
 10
154.130228995657
 20
549.7655015197649
 30
0.0
 40
4.0
100
AcDbArc
 50
0.0
 51
90.0
  0
ARC
  5
20B
330
1F
100
AcDbEntity
  8
0
  6
Continuous
 62
     7
100
AcDbCircle
 10
124.6302289956591
 20
513.765501519763
 30
0.0
 40
29.00000000000001
100
AcDbArc
 50
0.00000000000404
 51
180.000000000004
  0
ARC
  5
20C
330
1F
100
AcDbEntity
  8
0
  6
Continuous
 62
     7
100
AcDbCircle
 10
124.6302289956591
 20
505.765501519763
 30
0.0
 40
29.00000000000001
100
AcDbArc
 50
180.0000000000039
 51
256.0350054241682
  0
ARC
  5
20D
330
1F
100
AcDbEntity
  8
0
  6
Continuous
 62
     7
100
AcDbCircle
 10
124.6302289956611
 20
484.765501519763
 30
0.0
 40
10.00000000000017
100
AcDbArc
 50
225.5846914028132
 51
314.4153085971945
  0
ARC
  5
20E
330
1F
100
AcDbEntity
  8
0
  6
Continuous
 62
     7
100
AcDbCircle
 10
124.6302289956591
 20
505.765501519763
 30
0.0
 40
29.00000000000054
100
AcDbArc
 50
283.9649945758419
 51
0.00000000000416
  0
ARC
  5
20F
330
1F
100
AcDbEntity
  8
0
  6
Continuous
 62
     7
100
AcDbCircle
 10
95.13022899566113
 20
473.7655015197619
 30
0.0
 40
4.0
100
AcDbArc
 50
180.0
 51
270.0
  0
ARC
  5
210
330
1F
100
AcDbEntity
  8
0
  6
Continuous
 62
     7
100
AcDbCircle
 10
154.1302289956611
 20
473.7655015197651
 30
0.0
 40
4.0
100
AcDbArc
 50
270.0
 51
0.0
  0
ARC
  5
211
330
1F
100
AcDbEntity
  8
0
  6
Continuous
 62
     7
100
AcDbCircle
 10
95.13022899565703
 20
549.765501519762
 30
0.0
 40
4.0
100
AcDbArc
 50
90.0
 51
180.0
  0
ARC
  5
212
330
1F
100
AcDbEntity
  8
0
  6
Continuous
 62
     7
100
AcDbCircle
 10
164.6302289956761
 20
672.2655015197655
 30
0.0
 40
6.0
100
AcDbArc
 50
0.00000000000217
 51
90.00000000001059
  0
ARC
  5
213
330
1F
100
AcDbEntity
  8
0
  6
Continuous
 62
     7
100
AcDbCircle
 10
124.630228995655
 20
633.2655015197626
 30
0.0
 40
36.49999999999999
100
AcDbArc
 50
0.00000000000339
 51
180.0000000000034
  0
ARC
  5
214
330
1F
100
AcDbEntity
  8
0
  6
Continuous
 62
     7
100
AcDbCircle
 10
84.63022899567613
 20
672.2655015197607
 30
0.0
 40
6.0
100
AcDbArc
 50
90.00000000001087
 51
180.0000000000032
  0
ARC
  5
215
330
1F
100
AcDbEntity
  8
0
  6
Continuous
 62
     7
100
AcDbCircle
 10
124.630228995655
 20
620.2655015197626
 30
0.0
 40
36.50000000000001
100
AcDbArc
 50
180.0000000000034
 51
0.00000000000339
  0
ARC
  5
216
330
1F
100
AcDbEntity
  8
0
  6
Continuous
 62
     7
100
AcDbCircle
 10
84.63022899568114
 20
582.2655015197607
 30
0.0
 40
6.0
100
AcDbArc
 50
180.0000000000032
 51
270.0
  0
ARC
  5
217
330
1F
100
AcDbEntity
  8
0
  6
Continuous
 62
     7
100
AcDbCircle
 10
164.6302289956811
 20
582.2655015197654
 30
0.0
 40
6.0
100
AcDbArc
 50
270.0
 51
0.00000000000326
  0
CIRCLE
  5
218
330
1F
100
AcDbEntity
  8
0
  6
Continuous
 62
     7
100
AcDbCircle
 10
98.13022899565232
 20
477.2655015197639
 30
0.0
 40
1.999999999999986
  0
CIRCLE
  5
219
330
1F
100
AcDbEntity
  8
0
  6
Continuous
 62
     7
100
AcDbCircle
 10
151.1302289956523
 20
477.2655015197639
 30
0.0
 40
2.0
  0
CIRCLE
  5
21A
330
1F
100
AcDbEntity
  8
0
  6
Continuous
 62
     7
100
AcDbCircle
 10
151.130228995652
 20
546.2655015197639
 30
0.0
 40
2.0
  0
CIRCLE
  5
21B
330
1F
100
AcDbEntity
  8
0
  6
Continuous
 62
     7
100
AcDbCircle
 10
98.13022899565209
 20
546.2655015197639
 30
0.0
 40
1.999999999997115
  0
CIRCLE
  5
21C
330
1F
100
AcDbEntity
  8
0
  6
Continuous
 62
     7
100
AcDbCircle
 10
172.1302289956747
 20
690.76550151976
 30
0.0
 40
2.19999999998592
  0
CIRCLE
  5
21D
330
1F
100
AcDbEntity
  8
0
  6
Continuous
 62
     7
100
AcDbCircle
 10
172.130228995675
 20
454.7655015198039
 30
0.0
 40
2.199999999985891
  0
CIRCLE
  5
21E
330
1F
100
AcDbEntity
  8
0
  6
Continuous
 62
     7
100
AcDbCircle
 10
77.13022899564612
 20
454.7655015198039
 30
0.0
 40
2.199999999985948
  0
CIRCLE
  5
21F
330
1F
100
AcDbEntity
  8
0
  6
Continuous
 62
     7
100
AcDbCircle
 10
77.13022899564612
 20
690.76550151976
 30
0.0
 40
2.199999999985948
  0
CIRCLE
  5
220
330
1F
100
AcDbEntity
  8
0
  6
Continuous
 62
     7
100
AcDbCircle
 10
150.630228995657
 20
541.7655015197639
 30
0.0
 40
2.0
  0
CIRCLE
  5
221
330
1F
100
AcDbEntity
  8
0
  6
Continuous
 62
     7
100
AcDbCircle
 10
98.63022899565999
 20
541.765501519761
 30
0.0
 40
1.999999999997016
  0
CIRCLE
  5
222
330
1F
100
AcDbEntity
  8
0
  6
Continuous
 62
     7
100
AcDbCircle
 10
150.6302289956611
 20
481.7655015197639
 30
0.0
 40
2.0
  0
CIRCLE
  5
223
330
1F
100
AcDbEntity
  8
0
  6
Continuous
 62
     7
100
AcDbCircle
 10
98.63022899566113
 20
481.765501519761
 30
0.0
 40
1.999999999999972
  0
CIRCLE
  5
224
330
1F
100
AcDbEntity
  8
0
  6
Continuous
 62
     7
100
AcDbCircle
 10
163.1302289956761
 20
669.7655015197645
 30
0.0
 40
2.0
  0
CIRCLE
  5
225
330
1F
100
AcDbEntity
  8
0
  6
Continuous
 62
     7
100
AcDbCircle
 10
86.13022899567613
 20
669.7655015197577
 30
0.0
 40
2.0
  0
CIRCLE
  5
226
330
1F
100
AcDbEntity
  8
0
  6
Continuous
 62
     7
100
AcDbCircle
 10
163.1302289956811
 20
584.7655015197645
 30
0.0
 40
2.0
  0
CIRCLE
  5
227
330
1F
100
AcDbEntity
  8
0
  6
Continuous
 62
     7
100
AcDbCircle
 10
86.13022899568114
 20
584.76550151976
 30
0.0
 40
2.0
  0
SPLINE
  5
228
330
1F
100
AcDbEntity
  8
0
  6
Continuous
 62
     2
100
AcDbSpline
210
0.0
220
0.0
230
1.0
 70
     8
 71
     3
 72
    19
 73
    15
 74
    13
 42
0.000000001
 43
0.0000000001
 44
0.00000001
 40
0.0
 40
0.0
 40
0.0
 40
0.0
 40
1.043215816384001
 40
2.068475739288418
 40
3.058319906705126
 40
3.995899308930019
 40
4.865267939225019
 40
5.651662682880277
 40
6.341768363716526
 40
6.923972335246336
 40
7.388625715605111
 40
7.728392821251614
 40
7.939135393931132
 40
8.026584055746001
 40
8.026584055746001
 40
8.026584055746001
 40
8.026584055746001
 10
291.4884494543622
 20
468.236556257289
 30
0.0
 10
291.4968466648982
 20
467.8889176172581
 30
0.0
 10
291.5134965660378
 20
467.1996239147145
 30
0.0
 10
291.5292112219201
 20
466.1802935668421
 30
0.0
 10
291.5377085362842
 20
465.1960909827454
 30
0.0
 10
291.5382144159239
 20
464.2638283796053
 30
0.0
 10
291.5310245193143
 20
463.3993550418549
 30
0.0
 10
291.5158893912181
 20
462.6176601137598
 30
0.0
 10
291.4943778725664
 20
461.9313382240945
 30
0.0
 10
291.4634285668474
 20
461.3542481930797
 30
0.0
 10
291.4338818235992
 20
460.8900540942443
 30
0.0
 10
291.3820903454823
 20
460.5613621177138
 30
0.0
 10
291.3639761618676
 20
460.3382898245491
 30
0.0
 10
291.2984065672042
 20
460.2617453703456
 30
0.0
 10
291.279177390882
 20
460.2392976574839
 30
0.0
 11
291.4884494543622
 21
468.236556257289
 31
0.0
 11
291.5121094939668
 21
467.1936087831598
 31
0.0
 11
291.52821402334
 21
466.1684753510111
 31
0.0
 11
291.5364879618839
 21
465.1786657644241
 31
0.0
 11
291.5367899942977
 21
464.2410864108663
 31
0.0
 11
291.5291149540534
 21
463.3717516600099
 31
0.0
 11
291.5135939421812
 21
462.5855100998194
 31
0.0
 11
291.4904920577027
 21
461.8957912052191
 31
0.0
 11
291.4602038991497
 21
461.3143756122004
 31
0.0
 11
291.4232467963532
 21
460.8511942910224
 31
0.0
 11
291.3802520007276
 21
460.5141584866325
 31
0.0
 11
291.331953878859
 21
460.3090250586876
 31
0.0
 11
291.279177390882
 21
460.2392976574839
 31
0.0
  0
SPLINE
  5
229
330
1F
100
AcDbEntity
  8
0
  6
Continuous
 62
     2
100
AcDbSpline
210
0.0
220
0.0
230
1.0
 70
     8
 71
     3
 72
    23
 73
    19
 74
    17
 42
0.000000001
 43
0.0000000001
 44
0.00000001
 40
0.0
 40
0.0
 40
0.0
 40
0.0
 40
0.0354475178320621
 40
0.128104688755986
 40
0.279984086808469
 40
0.4902852620741555
 40
0.7572733522425213
 40
1.079491947094061
 40
1.454303030109657
 40
1.878456481802145
 40
2.349547668086191
 40
2.863628240617328
 40
3.416258212072198
 40
4.004290655369207
 40
4.941634889438037
 40
5.93136112228151
 40
6.956578867994692
 40
7.999789894237972
 40
7.999789894237972
 40
7.999789894237972
 40
7.999789894237972
 10
291.4884494543624
 20
446.057092154167
 30
0.0
 10
291.4945307272206
 20
446.0673478080821
 30
0.0
 10
291.5165080139913
 20
446.1044109669106
 30
0.0
 10
291.5176253301163
 20
446.2012096898929
 30
0.0
 10
291.5316288663184
 20
446.3504040501552
 30
0.0
 10
291.535034484649
 20
446.5610261955001
 30
0.0
 10
291.5383732490649
 20
446.8271585554216
 30
0.0
 10
291.5370963524983
 20
447.1486326220815
 30
0.0
 10
291.5327810210551
 20
447.5222938284929
 30
0.0
 10
291.5248699504893
 20
447.9455891928149
 30
0.0
 10
291.5135903647282
 20
448.4152260026547
 30
0.0
 10
291.4989582029201
 20
448.9276206138375
 30
0.0
 10
291.4810969718488
 20
449.47891310809
 30
0.0
 10
291.4563264142222
 20
450.1711401620749
 30
0.0
 10
291.4231676362973
 20
451.00885460546
 30
0.0
 10
291.3802859059658
 20
451.9920177922264
 30
0.0
 10
291.3324103698976
 20
453.0102810953634
 30
0.0
 10
291.2970243204156
 20
453.6988493658243
 30
0.0
 10
291.2791773908818
 20
454.046128432204
 30
0.0
 11
291.4884494543624
 21
446.057092154167
 31
0.0
 11
291.5050496821302
 21
446.0884124167774
 31
0.0
 11
291.5183298046666
 21
446.1801129601087
 31
0.0
 11
291.52821402334
 21
446.3316703872039
 31
0.0
 11
291.5346130251523
 21
446.5418741860308
 31
0.0
 11
291.5374771312677
 21
446.8088469133746
 31
0.0
 11
291.5367899942977
 21
447.1310647755049
 31
0.0
 11
291.5325524447553
 21
447.5058519032133
 31
0.0
 11
291.5248056887262
 21
447.9299346054414
 31
0.0
 11
291.5135939421812
 21
448.4008923556834
 31
0.0
 11
291.4990081226441
 21
448.9147659674836
 31
0.0
 11
291.4811775178641
 21
449.4671082118109
 31
0.0
 11
291.4602038991497
 21
450.0547664982968
 31
0.0
 11
291.4232467963532
 21
450.9913818866365
 31
0.0
 11
291.3802520007276
 21
451.9801738078814
 31
0.0
 11
291.3319538788589
 21
453.0042532567398
 31
0.0
 11
291.2791773908818
 21
454.046128432204
 31
0.0
  0
SPLINE
  5
22A
330
1F
100
AcDbEntity
  8
0
  6
Continuous
 62
     2
100
AcDbSpline
210
0.0
220
0.0
230
1.0
 70
     8
 71
     3
 72
    19
 73
    15
 74
    13
 42
0.000000001
 43
0.0000000001
 44
0.00000001
 40
0.0
 40
0.0
 40
0.0
 40
0.0
 40
1.043215816383886
 40
2.068475739288245
 40
3.058319906704668
 40
3.99589930892922
 40
4.86526793922405
 40
5.651662682879477
 40
6.341768363715727
 40
6.923972335245195
 40
7.388625715604419
 40
7.72839282125133
 40
7.939135393930904
 40
8.0265840557454
 40
8.0265840557454
 40
8.0265840557454
 40
8.0265840557454
 10
291.4884494545644
 20
677.2944467823017
 30
0.0
 10
291.4968466651003
 20
677.6420854223327
 30
0.0
 10
291.51349656624
 20
678.3313791248759
 30
0.0
 10
291.5292112221222
 20
679.3507094727486
 30
0.0
 10
291.5377085364861
 20
680.3349120568448
 30
0.0
 10
291.5382144161261
 20
681.2671746599849
 30
0.0
 10
291.531024519516
 20
682.1316479977348
 30
0.0
 10
291.5158893914203
 20
682.91334292583
 30
0.0
 10
291.4943778727684
 20
683.5996648154955
 30
0.0
 10
291.4634285670493
 20
684.17675484651
 30
0.0
 10
291.4338818238015
 20
684.6409489453458
 30
0.0
 10
291.382090345684
 20
684.9696409218764
 30
0.0
 10
291.36397616207
 20
685.1927132150414
 30
0.0
 10
291.2984065674061
 20
685.2692576692447
 30
0.0
 10
291.2791773910839
 20
685.2917053821061
 30
0.0
 11
291.4884494545644
 21
677.2944467823017
 31
0.0
 11
291.5121094941689
 21
678.3373942564308
 31
0.0
 11
291.528214023542
 21
679.3625276885796
 31
0.0
 11
291.5364879620859
 21
680.3523372751662
 31
0.0
 11
291.5367899944997
 21
681.2899166287236
 31
0.0
 11
291.5291149542554
 21
682.1592513795798
 31
0.0
 11
291.5135939423832
 21
682.9454929397706
 31
0.0
 11
291.4904920579047
 21
683.6352118343709
 31
0.0
 11
291.4602038993518
 21
684.2166274273892
 31
0.0
 11
291.4232467965552
 21
684.6798087485677
 31
0.0
 11
291.3802520009296
 21
685.016844552958
 31
0.0
 11
291.331953879061
 21
685.2219779809029
 31
0.0
 11
291.2791773910839
 21
685.2917053821061
 31
0.0
  0
SPLINE
  5
22B
330
1F
100
AcDbEntity
  8
0
  6
Continuous
 62
     2
100
AcDbSpline
210
0.0
220
0.0
230
1.0
 70
     8
 71
     3
 72
    23
 73
    19
 74
    17
 42
0.000000001
 43
0.0000000001
 44
0.00000001
 40
0.0
 40
0.0
 40
0.0
 40
0.0
 40
0.0354475178321922
 40
0.1281046887561079
 40
0.2799840868089276
 40
0.4902852620744987
 40
0.7572733522427508
 40
1.079491947094291
 40
1.454303030109774
 40
1.878456481802034
 40
2.349547668086193
 40
2.863628240617444
 40
3.416258212072143
 40
4.004290655369435
 40
4.941634889438319
 40
5.931361122281229
 40
6.956578867994352
 40
7.999789894237683
 40
7.999789894237683
 40
7.999789894237683
 40
7.999789894237683
 10
291.4884494545644
 20
699.473910885423
 30
0.0
 10
291.4945307274227
 20
699.463655231508
 30
0.0
 10
291.5165080141934
 20
699.426592072679
 30
0.0
 10
291.5176253303185
 20
699.3297933496974
 30
0.0
 10
291.5316288665204
 20
699.1805989894345
 30
0.0
 10
291.535034484851
 20
698.9699768440895
 30
0.0
 10
291.5383732492669
 20
698.7038444841683
 30
0.0
 10
291.5370963527003
 20
698.3823704175082
 30
0.0
 10
291.5327810212571
 20
698.0087092110971
 30
0.0
 10
291.5248699506913
 20
697.585413846775
 30
0.0
 10
291.5135903649302
 20
697.1157770369354
 30
0.0
 10
291.4989582031221
 20
696.6033824257527
 30
0.0
 10
291.4810969720509
 20
696.0520899315
 30
0.0
 10
291.4563264144242
 20
695.3598628775151
 30
0.0
 10
291.4231676364994
 20
694.5221484341299
 30
0.0
 10
291.3802859061677
 20
693.5389852473638
 30
0.0
 10
291.3324103700998
 20
692.5207219442268
 30
0.0
 10
291.2970243206177
 20
691.8321536737661
 30
0.0
 10
291.2791773910839
 20
691.4848746073864
 30
0.0
 11
291.4884494545644
 21
699.473910885423
 31
0.0
 11
291.5050496823323
 21
699.4425906228126
 31
0.0
 11
291.5183298048687
 21
699.3508900794812
 31
0.0
 11
291.528214023542
 21
699.1993326523858
 31
0.0
 11
291.5346130253542
 21
698.9891288535589
 31
0.0
 11
291.5374771314697
 21
698.7221561262152
 31
0.0
 11
291.5367899944997
 21
698.3999382640849
 31
0.0
 11
291.5325524449573
 21
698.0251511363766
 31
0.0
 11
291.5248056889282
 21
697.6010684341488
 31
0.0
 11
291.5135939423832
 21
697.1301106839068
 31
0.0
 11
291.4990081228461
 21
696.6162370721064
 31
0.0
 11
291.4811775180661
 21
696.0638948277792
 31
0.0
 11
291.4602038993518
 21
695.476236541293
 31
0.0
 11
291.4232467965552
 21
694.5396211529534
 31
0.0
 11
291.3802520009296
 21
693.5508292317089
 31
0.0
 11
291.331953879061
 21
692.5267497828506
 31
0.0
 11
291.2791773910839
 21
691.4848746073864
 31
0.0
  0
SPLINE
  5
22C
330
1F
100
AcDbEntity
  8
0
  6
Continuous
 62
     7
100
AcDbSpline
210
0.0
220
0.0
230
1.0
 70
     8
 71
     3
 72
    15
 73
    11
 74
     9
 42
0.000000001
 43
0.0000000001
 44
0.00000001
 40
0.0
 40
0.0
 40
0.0
 40
0.0
 40
1.372021433384846
 40
2.743873489505704
 40
4.115595912505181
 40
5.487248178726429
 40
6.858900444947616
 40
8.230622867947218
 40
9.602474924067916
 40
10.97449635745295
 40
10.97449635745295
 40
10.97449635745295
 40
10.97449635745295
 10
181.630228995645
 20
693.2679002449346
 30
0.0
 10
181.6041943517797
 20
693.7259737677836
 30
0.0
 10
181.5521282636557
 20
694.6420642624727
 30
0.0
 10
181.1361212440045
 20
695.9633319913586
 30
0.0
 10
180.4895041761839
 20
697.1810247834509
 30
0.0
 10
179.6126397823108
 20
698.247912306429
 30
0.0
 10
178.5457522593322
 20
699.1247767003023
 30
0.0
 10
177.3280594672402
 20
699.7713937681226
 30
0.0
 10
176.0067917383541
 20
700.1874007877739
 30
0.0
 10
175.0907012436653
 20
700.2394668758982
 30
0.0
 10
174.6326277208161
 20
700.2655015197635
 30
0.0
 11
181.630228995645
 21
693.2679002449346
 31
0.0
 11
181.4957965138204
 21
694.6333198603761
 31
0.0
 11
181.0976620285161
 21
695.9461286815564
 31
0.0
 11
180.4511110840057
 21
697.1559196909479
 31
0.0
 11
179.5809698078126
 21
698.216242331931
 31
0.0
 11
178.5206471668296
 21
699.086383608124
 31
0.0
 11
177.3108561574379
 21
699.7329345526346
 31
0.0
 11
175.9980473362578
 21
700.1310690379387
 31
0.0
 11
174.6326277208161
 21
700.2655015197635
 31
0.0
  0
SPLINE
  5
22D
330
1F
100
AcDbEntity
  8
0
  6
Continuous
 62
     7
100
AcDbSpline
210
0.0
220
0.0
230
1.0
 70
     8
 71
     3
 72
    15
 73
    11
 74
     9
 42
0.000000001
 43
0.0000000001
 44
0.00000001
 40
0.0
 40
0.0
 40
0.0
 40
0.0
 40
1.372021433384509
 40
2.743873489505376
 40
4.115595912504753
 40
5.487248178725929
 40
6.85890044494728
 40
8.230622867946934
 40
9.602474924067806
 40
10.97449635745287
 40
10.97449635745287
 40
10.97449635745287
 40
10.97449635745287
 10
181.630228995645
 20
452.2631027946289
 30
0.0
 10
181.6041943517798
 20
451.8050292717799
 30
0.0
 10
181.5521282636556
 20
450.888938777091
 30
0.0
 10
181.1361212440045
 20
449.5676710482055
 30
0.0
 10
180.4895041761837
 20
448.3499782561133
 30
0.0
 10
179.6126397823108
 20
447.2830907331347
 30
0.0
 10
178.5457522593325
 20
446.4062263392613
 30
0.0
 10
177.3280594672403
 20
445.7596092714406
 30
0.0
 10
176.0067917383542
 20
445.3436022517894
 30
0.0
 10
175.0907012436653
 20
445.2915361636651
 30
0.0
 10
174.6326277208161
 20
445.2655015197998
 30
0.0
 11
181.630228995645
 21
452.2631027946289
 31
0.0
 11
181.4957965138204
 21
450.8976831791877
 31
0.0
 11
181.0976620285161
 21
449.5848743580075
 31
0.0
 11
180.4511110840056
 21
448.375083348616
 31
0.0
 11
179.5809698078126
 21
447.314760707633
 31
0.0
 11
178.5206471668297
 21
446.4446194314395
 31
0.0
 11
177.310856157438
 21
445.798068486929
 31
0.0
 11
175.9980473362578
 21
445.3999340016246
 31
0.0
 11
174.6326277208161
 21
445.2655015197998
 31
0.0
  0
SPLINE
  5
22E
330
1F
100
AcDbEntity
  8
0
  6
Continuous
 62
     7
100
AcDbSpline
210
0.0
220
0.0
230
1.0
 70
     8
 71
     3
 72
    15
 73
    11
 74
     9
 42
0.000000001
 43
0.0000000001
 44
0.00000001
 40
0.0
 40
0.0
 40
0.0
 40
0.0
 40
1.37202143338451
 40
2.743873489505368
 40
4.115595912504732
 40
5.487248178725918
 40
6.858900444947247
 40
8.230622867946902
 40
9.602474924068224
 40
10.97449635745282
 40
10.97449635745282
 40
10.97449635745282
 40
10.97449635745282
 10
67.63022899567613
 20
452.2631027946289
 30
0.0
 10
67.65626363954135
 20
451.8050292717798
 30
0.0
 10
67.7083297276656
 20
450.8889387770913
 30
0.0
 10
68.12433674731668
 20
449.5676710482051
 30
0.0
 10
68.77095381513739
 20
448.3499782561133
 30
0.0
 10
69.64781820901038
 20
447.2830907331348
 30
0.0
 10
70.7147057319886
 20
446.4062263392612
 30
0.0
 10
71.93239852408094
 20
445.7596092714407
 30
0.0
 10
73.2536662529671
 20
445.3436022517893
 30
0.0
 10
74.16975674765591
 20
445.2915361636649
 30
0.0
 10
74.627830270505
 20
445.2655015197998
 30
0.0
 11
67.63022899567613
 21
452.2631027946289
 31
0.0
 11
67.76466147750081
 21
450.8976831791877
 31
0.0
 11
68.16279596280503
 21
449.5848743580075
 31
0.0
 11
68.80934690731549
 21
448.375083348616
 31
0.0
 11
69.67948818350851
 21
447.314760707633
 31
0.0
 11
70.73981082449136
 21
446.4446194314395
 31
0.0
 11
71.9496018338831
 21
445.798068486929
 31
0.0
 11
73.26241065506373
 21
445.3999340016246
 31
0.0
 11
74.627830270505
 21
445.2655015197998
 31
0.0
  0
SPLINE
  5
22F
330
1F
100
AcDbEntity
  8
0
  6
Continuous
 62
     7
100
AcDbSpline
210
0.0
220
0.0
230
1.0
 70
     8
 71
     3
 72
    15
 73
    11
 74
     9
 42
0.000000001
 43
0.0000000001
 44
0.00000001
 40
0.0
 40
0.0
 40
0.0
 40
0.0
 40
1.37202143338485
 40
2.743873489505708
 40
4.115595912505172
 40
5.487248178726357
 40
6.858900444947434
 40
8.230622867947062
 40
9.60247492406814
 40
10.97449635745292
 40
10.97449635745292
 40
10.97449635745292
 40
10.97449635745292
 10
67.63022899567613
 20
693.2679002449346
 30
0.0
 10
67.65626363954134
 20
693.7259737677838
 30
0.0
 10
67.70832972766553
 20
694.6420642624723
 30
0.0
 10
68.1243367473167
 20
695.9633319913586
 30
0.0
 10
68.77095381513737
 20
697.1810247834508
 30
0.0
 10
69.64781820901024
 20
698.247912306429
 30
0.0
 10
70.71470573198872
 20
699.1247767003023
 30
0.0
 10
71.93239852408082
 20
699.7713937681228
 30
0.0
 10
73.25366625296707
 20
700.1874007877739
 30
0.0
 10
74.16975674765587
 20
700.2394668758983
 30
0.0
 10
74.627830270505
 20
700.2655015197635
 30
0.0
 11
67.63022899567613
 21
693.2679002449346
 31
0.0
 11
67.76466147750081
 21
694.6333198603761
 31
0.0
 11
68.16279596280503
 21
695.9461286815564
 31
0.0
 11
68.80934690731549
 21
697.1559196909479
 31
0.0
 11
69.67948818350851
 21
698.216242331931
 31
0.0
 11
70.73981082449136
 21
699.086383608124
 31
0.0
 11
71.9496018338831
 21
699.7329345526346
 31
0.0
 11
73.26241065506355
 21
700.1310690379387
 31
0.0
 11
74.627830270505
 21
700.2655015197635
 31
0.0
  0
ARC
  5
230
330
1F
100
AcDbEntity
  8
1
  6
Continuous
 62
     7
100
AcDbCircle
 10
282.3802289956431
 20
686.1216503473959
 30
0.0
 40
0.5
100
AcDbArc
 50
180.0
 51
268.4999999999907
  0
ARC
  5
231
330
1F
100
AcDbEntity
  8
1
  6
Continuous
 62
     7
100
AcDbCircle
 10
282.3802289956431
 20
459.409352692168
 30
0.0
 40
0.5000000000002512
100
AcDbArc
 50
91.50000000000848
 51
180.0
  0
ARC
  5
232
330
1F
100
AcDbEntity
  8
1
  6
Continuous
 62
     7
100
AcDbCircle
 10
173.0319985823801
 20
677.4850656031821
 30
0.0
 40
8.0
100
AcDbArc
 50
0.0
 51
90.0
  0
ARC
  5
233
330
1F
100
AcDbEntity
  8
1
  6
Continuous
 62
     7
100
AcDbCircle
 10
158.8497930790761
 20
691.667271106499
 30
0.0
 40
8.0
100
AcDbArc
 50
0.0
 51
90.0
  0
ARC
  5
234
330
1F
100
AcDbEntity
  8
1
  6
Continuous
 62
     7
100
AcDbCircle
 10
158.8497930790761
 20
453.863731933065
 30
0.0
 40
8.0
100
AcDbArc
 50
270.0
 51
0.0
  0
ARC
  5
235
330
1F
100
AcDbEntity
  8
1
  6
Continuous
 62
     7
100
AcDbCircle
 10
173.0388511434651
 20
468.0390848752969
 30
0.0
 40
7.993148496174194
100
AcDbArc
 50
270.0294692607998
 51
0.02946926079329
  0
ARC
  5
236
330
1F
100
AcDbEntity
  8
1
  6
Continuous
 62
     7
100
AcDbCircle
 10
76.22845940894013
 20
468.045937436381
 30
0.0
 40
8.0
100
AcDbArc
 50
180.0
 51
270.0
  0
ARC
  5
237
330
1F
100
AcDbEntity
  8
1
  6
Continuous
 62
     7
100
AcDbCircle
 10
90.41066491224501
 20
453.863731933065
 30
0.0
 40
8.0
100
AcDbArc
 50
180.0
 51
270.0
  0
ARC
  5
238
330
1F
100
AcDbEntity
  8
1
  6
Continuous
 62
     7
100
AcDbCircle
 10
76.22845940894013
 20
677.4850656031821
 30
0.0
 40
8.0
100
AcDbArc
 50
90.0
 51
180.0
  0
ARC
  5
239
330
1F
100
AcDbEntity
  8
1
  6
Continuous
 62
     7
100
AcDbCircle
 10
90.41066491224501
 20
691.667271106499
 30
0.0
 40
8.0
100
AcDbArc
 50
89.99999999999675
 51
180.0
  0
MTEXT
  5
23A
330
1F
100
AcDbEntity
  8
1
 62
     7
100
AcDbMText
 10
111.2126175527502
 20
284.7567513850511
 30
0.0
 40
5.0
 41
0.0
 71
     5
 72
     1
  1
Added fixing holes for Schuko adapter.
  7
CONVERTER_11
 73
     1
 44
0.60024009603842
  0
MTEXT
  5
23B
330
1F
100
AcDbEntity
  8
1
 62
     7
100
AcDbMText
 10
37.59638025306703
 20
284.0911227459238
 30
0.0
 40
5.0
 41
0.0
 71
     5
 72
     1
  1
2/9/2013
  7
CONVERTER_11
 73
     1
 44
0.60024009603842
  0
MTEXT
  5
23C
330
1F
100
AcDbEntity
  8
1
 62
     7
100
AcDbMText
 10
14.2025012289451
 20
284.0911227459238
 30
0.0
 40
5.0
 41
0.0
 71
     5
 72
     1
  1
A
  7
CONVERTER_11
 73
     1
 44
0.60024009603842
  0
MTEXT
  5
23D
330
1F
100
AcDbEntity
  8
1
 62
     7
100
AcDbMText
 10
79.97353209419339
 20
264.218025361884
 30
0.0
 40
9.0
 41
0.0
 71
     4
 72
     1
  1
TM 1125P1632\PCOVER 1 MOD. P1632
  7
CONVERTER_12
 73
     1
 44
0.90036014405762
  0
MTEXT
  5
23E
330
1F
100
AcDbEntity
  8
1
 62
     7
100
AcDbMText
 10
30.62093071670802
 20
264.2180253618838
 30
0.0
 40
6.0
 41
0.0
 71
     4
 72
     1
  1
24/10/2012
  7
CONVERTER_12
 73
     1
 44
1.32052821128451
  0
MTEXT
  5
23F
330
1F
100
AcDbEntity
  8
1
 62
     7
100
AcDbMText
 10
30.62093071670802
 20
254.2180253618838
 30
0.0
 40
6.0
 41
0.0
 71
     4
 72
     1
  1
Visentin
  7
CONVERTER_12
 73
     1
 44
1.32052821128451
  0
MTEXT
  5
240
330
1F
100
AcDbEntity
  8
1
 62
     7
100
AcDbMText
 10
304.7735320941933
 20
259.3393042033961
 30
0.0
 40
9.0
 41
0.0
 71
     5
 72
     1
  1
1:2
  7
CONVERTER_12
 73
     1
 44
1.32052821128451
  0
DIMENSION
  5
24C
330
1F
100
AcDbEntity
  8
1
100
AcDbDimension
  2
*D3
 10
211.618817439798
 20
700.2655015197635
 30
0.0
 11
204.618817439798
 21
572.7655015197662
 31
0.0
 70
    32
  1
<>
 71
     5
 42
-1.0
 53
90.0
  3
ME10_DIM_10
100
AcDbAlignedDimension
 13
174.6326277208182
 23
445.2655015197689
 33
0.0
 14
174.6326277208191
 24
700.2655015197635
 34
0.0
 50
90.0
100
AcDbRotatedDimension
  0
DIMENSION
  5
257
330
1F
100
AcDbEntity
  8
1
100
AcDbDimension
  2
*D4
 10
67.63022899567615
 20
415.178569619642
 30
0.0
 11
124.6302289956616
 21
422.178569619642
 31
0.0
 70
    32
  1
<>
 71
     5
 42
-1.0
 53
0.00013888888889
  3
ME10_DIM_11
100
AcDbAlignedDimension
 13
181.630228995647
 23
452.263102794598
 33
0.0
 14
67.63022899567613
 24
452.263102794598
 34
0.0
100
AcDbRotatedDimension
  0
DIMENSION
  5
263
330
1F
100
AcDbEntity
  8
1
100
AcDbDimension
  2
*D5
 10
271.0697618046422
 20
415.330411450026
 30
0.0
 11
258.0745198231792
 21
422.330411450026
 31
0.0
 70
    32
  1
<>
 71
     5
 42
-1.0
 53
0.00013888888889
  3
ME10_DIM_12
100
AcDbAlignedDimension
 13
299.0697618044189
 23
454.958861740906
 33
0.0
 14
271.0697618046423
 24
445.2655015197998
 34
0.0
100
AcDbRotatedDimension
  0
ENDSEC
  0
SECTION
  2
OBJECTS
  0
DICTIONARY
  5
C
330
0
100
AcDbDictionary
281
     1
  3
ACAD_GROUP
350
D
  3
ACAD_LAYOUT
350
1A
  3
ACAD_MATERIAL
350
3B
  3
ACAD_MLEADERSTYLE
350
266
  3
ACAD_MLINESTYLE
350
17
  3
ACAD_PLOTSETTINGS
350
19
  3
ACAD_PLOTSTYLENAME
350
E
  3
ACAD_VISUALSTYLE
350
2A
  3
AcDbVariableDictionary
350
264
  0
DICTIONARY
  5
D
102
{ACAD_REACTORS
330
C
102
}
330
C
100
AcDbDictionary
281
     1
  0
DICTIONARY
  5
1A
102
{ACAD_REACTORS
330
C
102
}
330
C
100
AcDbDictionary
281
     1
  3
Layout1
350
1E
  3
Layout2
350
26
  3
Model
350
22
  0
DICTIONARY
  5
3B
102
{ACAD_REACTORS
330
C
102
}
330
C
100
AcDbDictionary
281
     1
  3
ByBlock
350
3D
  3
ByLayer
350
3C
  3
Global
350
3E
  0
DICTIONARY
  5
266
102
{ACAD_REACTORS
330
C
102
}
330
C
100
AcDbDictionary
281
     1
  0
DICTIONARY
  5
17
102
{ACAD_REACTORS
330
C
102
}
330
C
100
AcDbDictionary
281
     1
  3
Standard
350
18
  0
DICTIONARY
  5
19
102
{ACAD_REACTORS
330
C
102
}
330
C
100
AcDbDictionary
281
     1
  0
ACDBDICTIONARYWDFLT
  5
E
102
{ACAD_REACTORS
330
C
102
}
330
C
100
AcDbDictionary
281
     1
  3
Normal
350
F
100
AcDbDictionaryWithDefault
340
F
  0
DICTIONARY
  5
2A
102
{ACAD_REACTORS
330
C
102
}
330
C
100
AcDbDictionary
281
     1
  3
2dWireframe
350
2F
  3
3D Hidden
350
31
  3
3dWireframe
350
30
  3
Basic
350
32
  3
Brighten
350
36
  3
ColorChange
350
3A
  3
Conceptual
350
34
  3
Dim
350
35
  3
Facepattern
350
39
  3
Flat
350
2B
  3
FlatWithEdges
350
2C
  3
Gouraud
350
2D
  3
GouraudWithEdges
350
2E
  3
Linepattern
350
38
  3
Realistic
350
33
  3
Thicken
350
37
  0
DICTIONARY
  5
264
102
{ACAD_REACTORS
330
C
102
}
330
C
100
AcDbDictionary
281
     1
  3
DIMASSOC
350
267
  3
HIDETEXT
350
268
  0
LAYOUT
  5
1E
102
{ACAD_REACTORS
330
1A
102
}
330
1A
100
AcDbPlotSettings
  1

  2
none_device
  4

  6

 40
0.0
 41
0.0
 42
0.0
 43
0.0
 44
0.0
 45
0.0
 46
0.0
 47
0.0
 48
0.0
 49
0.0
140
0.0
141
0.0
142
1.0
143
1.0
 70
   688
 72
     0
 73
     0
 74
     5
  7

 75
    16
147
1.0
148
0.0
149
0.0
100
AcDbLayout
  1
Layout1
 70
     1
 71
     1
 10
0.0
 20
0.0
 11
12.0
 21
9.0
 12
0.0
 22
0.0
 32
0.0
 14
1.00000000000000E+20
 24
1.00000000000000E+20
 34
1.00000000000000E+20
 15
-1.00000000000000E+20
 25
-1.00000000000000E+20
 35
-1.00000000000000E+20
146
0.0
 13
0.0
 23
0.0
 33
0.0
 16
1.0
 26
0.0
 36
0.0
 17
0.0
 27
1.0
 37
0.0
 76
     0
330
1B
  0
LAYOUT
  5
26
102
{ACAD_REACTORS
330
1A
102
}
330
1A
100
AcDbPlotSettings
  1

  2
none_device
  4

  6

 40
0.0
 41
0.0
 42
0.0
 43
0.0
 44
0.0
 45
0.0
 46
0.0
 47
0.0
 48
0.0
 49
0.0
140
0.0
141
0.0
142
1.0
143
1.0
 70
   688
 72
     0
 73
     0
 74
     5
  7

 75
    16
147
1.0
148
0.0
149
0.0
100
AcDbLayout
  1
Layout2
 70
     1
 71
     2
 10
0.0
 20
0.0
 11
0.0
 21
0.0
 12
0.0
 22
0.0
 32
0.0
 14
0.0
 24
0.0
 34
0.0
 15
0.0
 25
0.0
 35
0.0
146
0.0
 13
0.0
 23
0.0
 33
0.0
 16
1.0
 26
0.0
 36
0.0
 17
0.0
 27
1.0
 37
0.0
 76
     0
330
23
  0
LAYOUT
  5
22
102
{ACAD_REACTORS
330
1A
102
}
330
1A
100
AcDbPlotSettings
  1

  2
none_device
  4

  6

 40
0.0
 41
0.0
 42
0.0
 43
0.0
 44
0.0
 45
0.0
 46
0.0
 47
0.0
 48
0.0
 49
0.0
140
0.0
141
0.0
142
1.0
143
1.0
 70
  1712
 72
     0
 73
     0
 74
     0
  7

 75
     0
147
1.0
148
0.0
149
0.0
100
AcDbLayout
  1
Model
 70
     1
 71
     0
 10
0.0
 20
0.0
 11
12.0
 21
9.0
 12
0.0
 22
0.0
 32
0.0
 14
-34.57906928329214
 24
239.218025361884
 34
0.0
 15
385.420930716708
 25
833.2180253618842
 35
0.0
146
0.0
 13
0.0
 23
0.0
 33
0.0
 16
1.0
 26
0.0
 36
0.0
 17
0.0
 27
1.0
 37
0.0
 76
     0
330
1F
331
29
  0
MATERIAL
  5
3D
102
{ACAD_REACTORS
330
3B
102
}
102
{ACAD_XDICTIONARY
360
28B
102
}
330
3B
100
AcDbMaterial
  1
ByBlock
  0
MATERIAL
  5
3C
102
{ACAD_REACTORS
330
3B
102
}
102
{ACAD_XDICTIONARY
360
289
102
}
330
3B
100
AcDbMaterial
  1
ByLayer
  0
MATERIAL
  5
3E
102
{ACAD_REACTORS
330
3B
102
}
102
{ACAD_XDICTIONARY
360
28D
102
}
330
3B
100
AcDbMaterial
  1
Global
  0
MLINESTYLE
  5
18
102
{ACAD_REACTORS
330
17
102
}
330
17
100
AcDbMlineStyle
  2
Standard
 70
     0
  3

 62
   256
 51
90.0
 52
90.0
 71
     2
 49
0.5
 62
   256
  6
BYLAYER
 49
-0.5
 62
   256
  6
BYLAYER
  0
ACDBPLACEHOLDER
  5
F
102
{ACAD_REACTORS
330
E
102
}
330
E
  0
VISUALSTYLE
  5
2F
102
{ACAD_REACTORS
330
2A
102
}
102
{ACAD_XDICTIONARY
360
271
102
}
330
2A
100
AcDbVisualStyle
  2
2dWireframe
 70
     4
 71
     0
 72
     2
 73
     0
 90
        0
 40
-0.6
 41
-30.0
 62
     5
 63
     7
 74
     1
 91
        4
 64
     7
 65
   257
 75
     1
175
     1
 42
1.0
 92
        0
 66
   257
 43
1.0
 76
     1
 77
     6
 78
     2
 67
     7
 79
     5
170
     0
171
     0
290
     0
174
     0
 93
        1
 44
0.0
173
     0
291
     0
 45
0.0
1001
ACAD
1000
AcDbSavedByObjectVersion
1070
     0
  0
VISUALSTYLE
  5
31
102
{ACAD_REACTORS
330
2A
102
}
102
{ACAD_XDICTIONARY
360
275
102
}
330
2A
100
AcDbVisualStyle
  2
3D Hidden
 70
     6
 71
     1
 72
     2
 73
     2
 90
        0
 40
-0.6
 41
-30.0
 62
     5
 63
     7
 74
     2
 91
        2
 64
     7
 65
   257
 75
     2
175
     1
 42
40.0
 92
        0
 66
   257
 43
1.0
 76
     1
 77
     6
 78
     2
 67
     7
 79
     3
170
     0
171
     0
290
     0
174
     0
 93
        1
 44
0.0
173
     0
291
     0
 45
0.0
1001
ACAD
1000
AcDbSavedByObjectVersion
1070
     0
  0
VISUALSTYLE
  5
30
102
{ACAD_REACTORS
330
2A
102
}
102
{ACAD_XDICTIONARY
360
273
102
}
330
2A
100
AcDbVisualStyle
  2
3dWireframe
 70
     5
 71
     0
 72
     2
 73
     0
 90
        0
 40
-0.6
 41
-30.0
 62
     5
 63
     7
 74
     1
 91
        4
 64
     7
 65
   257
 75
     1
175
     1
 42
1.0
 92
        0
 66
   257
 43
1.0
 76
     1
 77
     6
 78
     2
 67
     7
 79
     5
170
     0
171
     0
290
     0
174
     0
 93
        1
 44
0.0
173
     0
291
     0
 45
0.0
1001
ACAD
1000
AcDbSavedByObjectVersion
1070
     0
  0
VISUALSTYLE
  5
32
102
{ACAD_REACTORS
330
2A
102
}
102
{ACAD_XDICTIONARY
360
277
102
}
330
2A
100
AcDbVisualStyle
  2
Basic
 70
     7
 71
     1
 72
     0
 73
     1
 90
        0
 40
-0.6
 41
-30.0
 62
     5
 63
     7
 74
     0
 91
        4
 64
     7
 65
   257
 75
     1
175
     1
 42
1.0
 92
        8
 66
     7
 43
1.0
 76
     1
 77
     6
 78
     2
 67
     7
 79
     5
170
     0
171
     0
290
     0
174
     0
 93
        1
 44
0.0
173
     0
291
     1
 45
0.0
1001
ACAD
1000
AcDbSavedByObjectVersion
1070
     0
  0
VISUALSTYLE
  5
36
102
{ACAD_REACTORS
330
2A
102
}
102
{ACAD_XDICTIONARY
360
27F
102
}
330
2A
100
AcDbVisualStyle
  2
Brighten
 70
    12
 71
     2
 72
     2
 73
     0
 90
        0
 40
-0.6
 41
-30.0
 62
     5
 63
     7
 74
     1
 91
        4
 64
     7
 65
   257
 75
     1
175
     1
 42
1.0
 92
        8
 66
     7
 43
1.0
 76
     1
 77
     6
 78
     2
 67
     7
 79
     5
170
     0
171
     0
290
     0
174
     0
 93
        1
 44
50.0
173
     0
291
     1
 45
0.0
1001
ACAD
1000
AcDbSavedByObjectVersion
1070
     0
  0
VISUALSTYLE
  5
3A
102
{ACAD_REACTORS
330
2A
102
}
102
{ACAD_XDICTIONARY
360
287
102
}
330
2A
100
AcDbVisualStyle
  2
ColorChange
 70
    16
 71
     2
 72
     2
 73
     3
 90
        0
 40
-0.6
 41
-30.0
 62
     5
 63
     8
 74
     1
 91
        4
 64
     7
 65
   257
 75
     1
175
     1
 42
1.0
 92
        8
 66
     8
 43
1.0
 76
     1
 77
     6
 78
     2
 67
     7
 79
     5
170
     0
171
     0
290
     0
174
     0
 93
        1
 44
0.0
173
     0
291
     1
 45
0.0
1001
ACAD
1000
AcDbSavedByObjectVersion
1070
     0
  0
VISUALSTYLE
  5
34
102
{ACAD_REACTORS
330
2A
102
}
102
{ACAD_XDICTIONARY
360
27B
102
}
330
2A
100
AcDbVisualStyle
  2
Conceptual
 70
     9
 71
     3
 72
     2
 73
     0
 90
        0
 40
-0.6
 41
-30.0
 62
     5
 63
     7
 74
     2
 91
        2
 64
     7
 65
   257
 75
     1
175
     1
 42
40.0
 92
        8
 66
     7
 43
1.0
 76
     1
 77
     6
 78
     2
 67
     7
 79
     3
170
     0
171
     0
290
     0
174
     0
 93
        1
 44
0.0
173
     0
291
     0
 45
0.0
1001
ACAD
1000
AcDbSavedByObjectVersion
1070
     0
  0
VISUALSTYLE
  5
35
102
{ACAD_REACTORS
330
2A
102
}
102
{ACAD_XDICTIONARY
360
27D
102
}
330
2A
100
AcDbVisualStyle
  2
Dim
 70
    11
 71
     2
 72
     2
 73
     0
 90
        0
 40
-0.6
 41
-30.0
 62
     5
 63
     7
 74
     1
 91
        4
 64
     7
 65
   257
 75
     1
175
     1
 42
1.0
 92
        8
 66
     7
 43
1.0
 76
     1
 77
     6
 78
     2
 67
     7
 79
     5
170
     0
171
     0
290
     0
174
     0
 93
        1
 44
-50.0
173
     0
291
     1
 45
0.0
1001
ACAD
1000
AcDbSavedByObjectVersion
1070
     0
  0
VISUALSTYLE
  5
39
102
{ACAD_REACTORS
330
2A
102
}
102
{ACAD_XDICTIONARY
360
285
102
}
330
2A
100
AcDbVisualStyle
  2
Facepattern
 70
    15
 71
     2
 72
     2
 73
     0
 90
        0
 40
-0.6
 41
-30.0
 62
     5
 63
     7
 74
     1
 91
        4
 64
     7
 65
   257
 75
     1
175
     1
 42
1.0
 92
        8
 66
     7
 43
1.0
 76
     1
 77
     6
 78
     2
 67
     7
 79
     5
170
     0
171
     0
290
     0
174
     0
 93
        1
 44
0.0
173
     0
291
     1
 45
0.0
1001
ACAD
1000
AcDbSavedByObjectVersion
1070
     0
  0
VISUALSTYLE
  5
2B
102
{ACAD_REACTORS
330
2A
102
}
102
{ACAD_XDICTIONARY
360
269
102
}
330
2A
100
AcDbVisualStyle
  2
Flat
 70
     0
 71
     2
 72
     1
 73
     1
 90
        2
 40
-0.6
 41
30.0
 62
     5
 63
     7
 74
     0
 91
        4
 64
     7
 65
   257
 75
     1
175
     1
 42
1.0
 92
        8
 66
     7
 43
1.0
 76
     1
 77
     6
 78
     2
 67
     7
 79
     5
170
     0
171
     0
290
     0
174
     0
 93
       13
 44
0.0
173
     0
291
     1
 45
0.0
1001
ACAD
1000
AcDbSavedByObjectVersion
1070
     0
  0
VISUALSTYLE
  5
2C
102
{ACAD_REACTORS
330
2A
102
}
102
{ACAD_XDICTIONARY
360
26B
102
}
330
2A
100
AcDbVisualStyle
  2
FlatWithEdges
 70
     1
 71
     2
 72
     1
 73
     1
 90
        2
 40
-0.6
 41
30.0
 62
     5
 63
     7
 74
     1
 91
        4
 64
     7
 65
   257
 75
     1
175
     1
 42
1.0
 92
        0
 66
   257
 43
1.0
 76
     1
 77
     6
 78
     2
 67
     7
 79
     5
170
     0
171
     0
290
     0
174
     0
 93
       13
 44
0.0
173
     0
291
     1
 45
0.0
1001
ACAD
1000
AcDbSavedByObjectVersion
1070
     0
  0
VISUALSTYLE
  5
2D
102
{ACAD_REACTORS
330
2A
102
}
102
{ACAD_XDICTIONARY
360
26D
102
}
330
2A
100
AcDbVisualStyle
  2
Gouraud
 70
     2
 71
     2
 72
     2
 73
     1
 90
        2
 40
-0.6
 41
30.0
 62
     5
 63
     7
 74
     0
 91
        4
 64
     7
 65
   257
 75
     1
175
     1
 42
1.0
 92
        0
 66
     7
 43
1.0
 76
     1
 77
     6
 78
     2
 67
     7
 79
     5
170
     0
171
     0
290
     0
174
     0
 93
       13
 44
0.0
173
     0
291
     1
 45
0.0
1001
ACAD
1000
AcDbSavedByObjectVersion
1070
     0
  0
VISUALSTYLE
  5
2E
102
{ACAD_REACTORS
330
2A
102
}
102
{ACAD_XDICTIONARY
360
26F
102
}
330
2A
100
AcDbVisualStyle
  2
GouraudWithEdges
 70
     3
 71
     2
 72
     2
 73
     1
 90
        2
 40
-0.6
 41
30.0
 62
     5
 63
     7
 74
     1
 91
        4
 64
     7
 65
   257
 75
     1
175
     1
 42
1.0
 92
        0
 66
   257
 43
1.0
 76
     1
 77
     6
 78
     2
 67
     7
 79
     5
170
     0
171
     0
290
     0
174
     0
 93
       13
 44
0.0
173
     0
291
     1
 45
0.0
1001
ACAD
1000
AcDbSavedByObjectVersion
1070
     0
  0
VISUALSTYLE
  5
38
102
{ACAD_REACTORS
330
2A
102
}
102
{ACAD_XDICTIONARY
360
283
102
}
330
2A
100
AcDbVisualStyle
  2
Linepattern
 70
    14
 71
     2
 72
     2
 73
     0
 90
        0
 40
-0.6
 41
-30.0
 62
     5
 63
     7
 74
     1
 91
        4
 64
     7
 65
   257
 75
     7
175
     7
 42
1.0
 92
        8
 66
     7
 43
1.0
 76
     1
 77
     6
 78
     2
 67
     7
 79
     5
170
     0
171
     0
290
     0
174
     0
 93
        1
 44
0.0
173
     0
291
     1
 45
0.0
1001
ACAD
1000
AcDbSavedByObjectVersion
1070
     0
  0
VISUALSTYLE
  5
33
102
{ACAD_REACTORS
330
2A
102
}
102
{ACAD_XDICTIONARY
360
279
102
}
330
2A
100
AcDbVisualStyle
  2
Realistic
 70
     8
 71
     2
 72
     2
 73
     0
 90
        0
 40
-0.6
 41
-30.0
 62
     5
 63
     7
 74
     1
 91
        0
 64
     7
 65
   257
 75
     1
175
     1
 42
1.0
 92
        8
 66
     8
 43
1.0
 76
     1
 77
     6
 78
     2
 67
     7
 79
     5
170
     0
171
     0
290
     0
174
     0
 93
       13
 44
0.0
173
     0
291
     0
 45
0.0
1001
ACAD
1000
AcDbSavedByObjectVersion
1070
     0
  0
VISUALSTYLE
  5
37
102
{ACAD_REACTORS
330
2A
102
}
102
{ACAD_XDICTIONARY
360
281
102
}
330
2A
100
AcDbVisualStyle
  2
Thicken
 70
    13
 71
     2
 72
     2
 73
     0
 90
        0
 40
-0.6
 41
-30.0
 62
     5
 63
     7
 74
     1
 91
        4
 64
     7
 65
   257
 75
     1
175
     1
 42
1.0
 92
       12
 66
     7
 43
1.0
 76
     1
 77
     6
 78
     2
 67
     7
 79
     5
170
     0
171
     0
290
     0
174
     0
 93
        1
 44
0.0
173
     0
291
     1
 45
0.0
1001
ACAD
1000
AcDbSavedByObjectVersion
1070
     0
  0
DICTIONARYVAR
  5
267
102
{ACAD_REACTORS
330
264
102
}
330
264
100
DictionaryVariables
280
     0
  1
2
  0
DICTIONARYVAR
  5
268
102
{ACAD_REACTORS
330
264
102
}
330
264
100
DictionaryVariables
280
     0
  1
1
  0
DICTIONARY
  5
28B
330
3D
100
AcDbDictionary
280
     1
281
     1
  3
ACAD_XREC_ROUNDTRIP
360
28C
  0
DICTIONARY
  5
289
330
3C
100
AcDbDictionary
280
     1
281
     1
  3
ACAD_XREC_ROUNDTRIP
360
28A
  0
DICTIONARY
  5
28D
330
3E
100
AcDbDictionary
280
     1
281
     1
  3
ACAD_XREC_ROUNDTRIP
360
28E
  0
DICTIONARY
  5
271
330
2F
100
AcDbDictionary
280
     1
281
     1
  3
ACAD_XREC_ROUNDTRIP
360
272
  0
DICTIONARY
  5
275
330
31
100
AcDbDictionary
280
     1
281
     1
  3
ACAD_XREC_ROUNDTRIP
360
276
  0
DICTIONARY
  5
273
330
30
100
AcDbDictionary
280
     1
281
     1
  3
ACAD_XREC_ROUNDTRIP
360
274
  0
DICTIONARY
  5
277
330
32
100
AcDbDictionary
280
     1
281
     1
  3
ACAD_XREC_ROUNDTRIP
360
278
  0
DICTIONARY
  5
27F
330
36
100
AcDbDictionary
280
     1
281
     1
  3
ACAD_XREC_ROUNDTRIP
360
280
  0
DICTIONARY
  5
287
330
3A
100
AcDbDictionary
280
     1
281
     1
  3
ACAD_XREC_ROUNDTRIP
360
288
  0
DICTIONARY
  5
27B
330
34
100
AcDbDictionary
280
     1
281
     1
  3
ACAD_XREC_ROUNDTRIP
360
27C
  0
DICTIONARY
  5
27D
330
35
100
AcDbDictionary
280
     1
281
     1
  3
ACAD_XREC_ROUNDTRIP
360
27E
  0
DICTIONARY
  5
285
330
39
100
AcDbDictionary
280
     1
281
     1
  3
ACAD_XREC_ROUNDTRIP
360
286
  0
DICTIONARY
  5
269
330
2B
100
AcDbDictionary
280
     1
281
     1
  3
ACAD_XREC_ROUNDTRIP
360
26A
  0
DICTIONARY
  5
26B
330
2C
100
AcDbDictionary
280
     1
281
     1
  3
ACAD_XREC_ROUNDTRIP
360
26C
  0
DICTIONARY
  5
26D
330
2D
100
AcDbDictionary
280
     1
281
     1
  3
ACAD_XREC_ROUNDTRIP
360
26E
  0
DICTIONARY
  5
26F
330
2E
100
AcDbDictionary
280
     1
281
     1
  3
ACAD_XREC_ROUNDTRIP
360
270
  0
DICTIONARY
  5
283
330
38
100
AcDbDictionary
280
     1
281
     1
  3
ACAD_XREC_ROUNDTRIP
360
284
  0
DICTIONARY
  5
279
330
33
100
AcDbDictionary
280
     1
281
     1
  3
ACAD_XREC_ROUNDTRIP
360
27A
  0
DICTIONARY
  5
281
330
37
100
AcDbDictionary
280
     1
281
     1
  3
ACAD_XREC_ROUNDTRIP
360
282
  0
XRECORD
  5
28C
102
{ACAD_REACTORS
330
28B
102
}
330
28B
100
AcDbXrecord
280
     1
102
MATERIAL
148
0.0
149
0.0
149
0.0
 93
        0
 94
      127
282
     0
 72
     1
 77
     1
171
     1
175
     1
179
     1
273
     0
  0
XRECORD
  5
28A
102
{ACAD_REACTORS
330
289
102
}
330
289
100
AcDbXrecord
280
     1
102
MATERIAL
148
0.0
149
0.0
149
0.0
 93
        0
 94
      127
282
     0
 72
     1
 77
     1
171
     1
175
     1
179
     1
273
     0
  0
XRECORD
  5
28E
102
{ACAD_REACTORS
330
28D
102
}
330
28D
100
AcDbXrecord
280
     1
102
MATERIAL
148
0.0
149
0.0
149
0.0
 93
        0
 94
      127
282
     0
 72
     1
 77
     1
171
     1
175
     1
179
     1
273
     0
  0
XRECORD
  5
272
102
{ACAD_REACTORS
330
271
102
}
330
271
100
AcDbXrecord
280
     1
102
RTVSPropertyOp0
 70
     1
102
RTVSPropertyOp1
 70
     1
102
RTVSPropertyOp2
 70
     1
102
RTVSPropertyOp3
 70
     1
102
RTVSPropertyOp4
 70
     1
102
RTVSPropertyOp5
 70
     1
102
RTVSPropertyOp6
 70
     1
102
RTVSPropertyOp7
 70
     1
102
RTVSPropertyOp8
 70
     1
102
RTVSPropertyOp9
 70
     1
102
RTVSPropertyOp10
 70
     1
102
RTVSPropertyOp11
 70
     1
102
RTVSPropertyOp12
 70
     1
102
RTVSPropertyOp13
 70
     1
102
RTVSPropertyOp14
 70
     1
102
RTVSPropertyOp15
 70
     1
102
RTVSPropertyOp16
 70
     1
102
RTVSPropertyOp17
 70
     1
102
RTVSPropertyOp18
 70
     1
102
RTVSPropertyOp19
 70
     1
102
RTVSPropertyOp20
 70
     1
102
RTVSPropertyOp21
 70
     1
102
RTVSPropertyOp22
 70
     1
102
RTVSPropertyOp23
 70
     1
102
RTVSPropertyOp24
 70
     1
102
RTVSPropertyOp25
 70
     1
102
RTVSPropertyOp26
 70
     1
102
RTVSPropertyOp27
 70
     1
102
RTVSPropertyOp28
 70
     1
102
RTVSPropertyOp29
 70
     1
102
RTVSPropertyOp30
 70
     1
102
RTVSPropertyOp31
 70
     1
102
RTVSPropertyOp32
 70
     1
  0
XRECORD
  5
276
102
{ACAD_REACTORS
330
275
102
}
330
275
100
AcDbXrecord
280
     1
102
RTVSPropertyOp0
 70
     1
102
RTVSPropertyOp1
 70
     1
102
RTVSPropertyOp2
 70
     1
102
RTVSPropertyOp3
 70
     1
102
RTVSPropertyOp4
 70
     1
102
RTVSPropertyOp5
 70
     1
102
RTVSPropertyOp6
 70
     1
102
RTVSPropertyOp7
 70
     1
102
RTVSPropertyOp8
 70
     1
102
RTVSPropertyOp9
 70
     1
102
RTVSPropertyOp10
 70
     1
102
RTVSPropertyOp11
 70
     1
102
RTVSPropertyOp12
 70
     1
102
RTVSPropertyOp13
 70
     1
102
RTVSPropertyOp14
 70
     1
102
RTVSPropertyOp15
 70
     1
102
RTVSPropertyOp16
 70
     1
102
RTVSPropertyOp17
 70
     1
102
RTVSPropertyOp18
 70
     1
102
RTVSPropertyOp19
 70
     1
102
RTVSPropertyOp20
 70
     1
102
RTVSPropertyOp21
 70
     1
102
RTVSPropertyOp22
 70
     1
102
RTVSPropertyOp23
 70
     1
102
RTVSPropertyOp24
 70
     1
102
RTVSPropertyOp25
 70
     1
102
RTVSPropertyOp26
 70
     1
102
RTVSPropertyOp27
 70
     1
102
RTVSPropertyOp28
 70
     1
102
RTVSPropertyOp29
 70
     1
102
RTVSPropertyOp30
 70
     1
102
RTVSPropertyOp31
 70
     1
102
RTVSPropertyOp32
 70
     1
  0
XRECORD
  5
274
102
{ACAD_REACTORS
330
273
102
}
330
273
100
AcDbXrecord
280
     1
102
RTVSPropertyOp0
 70
     1
102
RTVSPropertyOp1
 70
     1
102
RTVSPropertyOp2
 70
     1
102
RTVSPropertyOp3
 70
     1
102
RTVSPropertyOp4
 70
     1
102
RTVSPropertyOp5
 70
     1
102
RTVSPropertyOp6
 70
     1
102
RTVSPropertyOp7
 70
     1
102
RTVSPropertyOp8
 70
     1
102
RTVSPropertyOp9
 70
     1
102
RTVSPropertyOp10
 70
     1
102
RTVSPropertyOp11
 70
     1
102
RTVSPropertyOp12
 70
     1
102
RTVSPropertyOp13
 70
     1
102
RTVSPropertyOp14
 70
     1
102
RTVSPropertyOp15
 70
     1
102
RTVSPropertyOp16
 70
     1
102
RTVSPropertyOp17
 70
     1
102
RTVSPropertyOp18
 70
     1
102
RTVSPropertyOp19
 70
     1
102
RTVSPropertyOp20
 70
     1
102
RTVSPropertyOp21
 70
     1
102
RTVSPropertyOp22
 70
     1
102
RTVSPropertyOp23
 70
     1
102
RTVSPropertyOp24
 70
     1
102
RTVSPropertyOp25
 70
     1
102
RTVSPropertyOp26
 70
     1
102
RTVSPropertyOp27
 70
     1
102
RTVSPropertyOp28
 70
     1
102
RTVSPropertyOp29
 70
     1
102
RTVSPropertyOp30
 70
     1
102
RTVSPropertyOp31
 70
     1
102
RTVSPropertyOp32
 70
     1
  0
XRECORD
  5
278
102
{ACAD_REACTORS
330
277
102
}
330
277
100
AcDbXrecord
280
     1
102
RTVSPropertyOp0
 70
     1
102
RTVSPropertyOp1
 70
     1
102
RTVSPropertyOp2
 70
     1
102
RTVSPropertyOp3
 70
     1
102
RTVSPropertyOp4
 70
     1
102
RTVSPropertyOp5
 70
     1
102
RTVSPropertyOp6
 70
     1
102
RTVSPropertyOp7
 70
     1
102
RTVSPropertyOp8
 70
     1
102
RTVSPropertyOp9
 70
     1
102
RTVSPropertyOp10
 70
     1
102
RTVSPropertyOp11
 70
     1
102
RTVSPropertyOp12
 70
     1
102
RTVSPropertyOp13
 70
     1
102
RTVSPropertyOp14
 70
     1
102
RTVSPropertyOp15
 70
     1
102
RTVSPropertyOp16
 70
     1
102
RTVSPropertyOp17
 70
     1
102
RTVSPropertyOp18
 70
     1
102
RTVSPropertyOp19
 70
     1
102
RTVSPropertyOp20
 70
     1
102
RTVSPropertyOp21
 70
     1
102
RTVSPropertyOp22
 70
     1
102
RTVSPropertyOp23
 70
     1
102
RTVSPropertyOp24
 70
     1
102
RTVSPropertyOp25
 70
     1
102
RTVSPropertyOp26
 70
     1
102
RTVSPropertyOp27
 70
     1
102
RTVSPropertyOp28
 70
     1
102
RTVSPropertyOp29
 70
     1
102
RTVSPropertyOp30
 70
     1
102
RTVSPropertyOp31
 70
     1
102
RTVSPropertyOp32
 70
     1
  0
XRECORD
  5
280
102
{ACAD_REACTORS
330
27F
102
}
330
27F
100
AcDbXrecord
280
     1
102
RTVSPropertyOp0
 70
     1
102
RTVSPropertyOp1
 70
     1
102
RTVSPropertyOp2
 70
     1
102
RTVSPropertyOp3
 70
     1
102
RTVSPropertyOp4
 70
     1
102
RTVSPropertyOp5
 70
     1
102
RTVSPropertyOp6
 70
     1
102
RTVSPropertyOp7
 70
     1
102
RTVSPropertyOp8
 70
     1
102
RTVSPropertyOp9
 70
     1
102
RTVSPropertyOp10
 70
     1
102
RTVSPropertyOp11
 70
     1
102
RTVSPropertyOp12
 70
     1
102
RTVSPropertyOp13
 70
     1
102
RTVSPropertyOp14
 70
     1
102
RTVSPropertyOp15
 70
     1
102
RTVSPropertyOp16
 70
     1
102
RTVSPropertyOp17
 70
     1
102
RTVSPropertyOp18
 70
     1
102
RTVSPropertyOp19
 70
     1
102
RTVSPropertyOp20
 70
     1
102
RTVSPropertyOp21
 70
     1
102
RTVSPropertyOp22
 70
     1
102
RTVSPropertyOp23
 70
     1
102
RTVSPropertyOp24
 70
     1
102
RTVSPropertyOp25
 70
     1
102
RTVSPropertyOp26
 70
     1
102
RTVSPropertyOp27
 70
     1
102
RTVSPropertyOp28
 70
     1
102
RTVSPropertyOp29
 70
     1
102
RTVSPropertyOp30
 70
     1
102
RTVSPropertyOp31
 70
     1
102
RTVSPropertyOp32
 70
     1
  0
XRECORD
  5
288
102
{ACAD_REACTORS
330
287
102
}
330
287
100
AcDbXrecord
280
     1
102
RTVSPropertyOp0
 70
     1
102
RTVSPropertyOp1
 70
     1
102
RTVSPropertyOp2
 70
     1
102
RTVSPropertyOp3
 70
     1
102
RTVSPropertyOp4
 70
     1
102
RTVSPropertyOp5
 70
     1
102
RTVSPropertyOp6
 70
     1
102
RTVSPropertyOp7
 70
     1
102
RTVSPropertyOp8
 70
     1
102
RTVSPropertyOp9
 70
     1
102
RTVSPropertyOp10
 70
     1
102
RTVSPropertyOp11
 70
     1
102
RTVSPropertyOp12
 70
     1
102
RTVSPropertyOp13
 70
     1
102
RTVSPropertyOp14
 70
     1
102
RTVSPropertyOp15
 70
     1
102
RTVSPropertyOp16
 70
     1
102
RTVSPropertyOp17
 70
     1
102
RTVSPropertyOp18
 70
     1
102
RTVSPropertyOp19
 70
     1
102
RTVSPropertyOp20
 70
     1
102
RTVSPropertyOp21
 70
     1
102
RTVSPropertyOp22
 70
     1
102
RTVSPropertyOp23
 70
     1
102
RTVSPropertyOp24
 70
     1
102
RTVSPropertyOp25
 70
     1
102
RTVSPropertyOp26
 70
     1
102
RTVSPropertyOp27
 70
     1
102
RTVSPropertyOp28
 70
     1
102
RTVSPropertyOp29
 70
     1
102
RTVSPropertyOp30
 70
     1
102
RTVSPropertyOp31
 70
     1
102
RTVSPropertyOp32
 70
     1
  0
XRECORD
  5
27C
102
{ACAD_REACTORS
330
27B
102
}
330
27B
100
AcDbXrecord
280
     1
102
RTVSPropertyOp0
 70
     1
102
RTVSPropertyOp1
 70
     1
102
RTVSPropertyOp2
 70
     1
102
RTVSPropertyOp3
 70
     1
102
RTVSPropertyOp4
 70
     1
102
RTVSPropertyOp5
 70
     1
102
RTVSPropertyOp6
 70
     1
102
RTVSPropertyOp7
 70
     1
102
RTVSPropertyOp8
 70
     1
102
RTVSPropertyOp9
 70
     1
102
RTVSPropertyOp10
 70
     1
102
RTVSPropertyOp11
 70
     1
102
RTVSPropertyOp12
 70
     1
102
RTVSPropertyOp13
 70
     1
102
RTVSPropertyOp14
 70
     1
102
RTVSPropertyOp15
 70
     1
102
RTVSPropertyOp16
 70
     1
102
RTVSPropertyOp17
 70
     1
102
RTVSPropertyOp18
 70
     1
102
RTVSPropertyOp19
 70
     1
102
RTVSPropertyOp20
 70
     1
102
RTVSPropertyOp21
 70
     1
102
RTVSPropertyOp22
 70
     1
102
RTVSPropertyOp23
 70
     1
102
RTVSPropertyOp24
 70
     1
102
RTVSPropertyOp25
 70
     1
102
RTVSPropertyOp26
 70
     1
102
RTVSPropertyOp27
 70
     1
102
RTVSPropertyOp28
 70
     1
102
RTVSPropertyOp29
 70
     1
102
RTVSPropertyOp30
 70
     1
102
RTVSPropertyOp31
 70
     1
102
RTVSPropertyOp32
 70
     1
  0
XRECORD
  5
27E
102
{ACAD_REACTORS
330
27D
102
}
330
27D
100
AcDbXrecord
280
     1
102
RTVSPropertyOp0
 70
     1
102
RTVSPropertyOp1
 70
     1
102
RTVSPropertyOp2
 70
     1
102
RTVSPropertyOp3
 70
     1
102
RTVSPropertyOp4
 70
     1
102
RTVSPropertyOp5
 70
     1
102
RTVSPropertyOp6
 70
     1
102
RTVSPropertyOp7
 70
     1
102
RTVSPropertyOp8
 70
     1
102
RTVSPropertyOp9
 70
     1
102
RTVSPropertyOp10
 70
     1
102
RTVSPropertyOp11
 70
     1
102
RTVSPropertyOp12
 70
     1
102
RTVSPropertyOp13
 70
     1
102
RTVSPropertyOp14
 70
     1
102
RTVSPropertyOp15
 70
     1
102
RTVSPropertyOp16
 70
     1
102
RTVSPropertyOp17
 70
     1
102
RTVSPropertyOp18
 70
     1
102
RTVSPropertyOp19
 70
     1
102
RTVSPropertyOp20
 70
     1
102
RTVSPropertyOp21
 70
     1
102
RTVSPropertyOp22
 70
     1
102
RTVSPropertyOp23
 70
     1
102
RTVSPropertyOp24
 70
     1
102
RTVSPropertyOp25
 70
     1
102
RTVSPropertyOp26
 70
     1
102
RTVSPropertyOp27
 70
     1
102
RTVSPropertyOp28
 70
     1
102
RTVSPropertyOp29
 70
     1
102
RTVSPropertyOp30
 70
     1
102
RTVSPropertyOp31
 70
     1
102
RTVSPropertyOp32
 70
     1
  0
XRECORD
  5
286
102
{ACAD_REACTORS
330
285
102
}
330
285
100
AcDbXrecord
280
     1
102
RTVSPropertyOp0
 70
     1
102
RTVSPropertyOp1
 70
     1
102
RTVSPropertyOp2
 70
     1
102
RTVSPropertyOp3
 70
     1
102
RTVSPropertyOp4
 70
     1
102
RTVSPropertyOp5
 70
     1
102
RTVSPropertyOp6
 70
     1
102
RTVSPropertyOp7
 70
     1
102
RTVSPropertyOp8
 70
     1
102
RTVSPropertyOp9
 70
     1
102
RTVSPropertyOp10
 70
     1
102
RTVSPropertyOp11
 70
     1
102
RTVSPropertyOp12
 70
     1
102
RTVSPropertyOp13
 70
     1
102
RTVSPropertyOp14
 70
     1
102
RTVSPropertyOp15
 70
     1
102
RTVSPropertyOp16
 70
     1
102
RTVSPropertyOp17
 70
     1
102
RTVSPropertyOp18
 70
     1
102
RTVSPropertyOp19
 70
     1
102
RTVSPropertyOp20
 70
     1
102
RTVSPropertyOp21
 70
     1
102
RTVSPropertyOp22
 70
     1
102
RTVSPropertyOp23
 70
     1
102
RTVSPropertyOp24
 70
     1
102
RTVSPropertyOp25
 70
     1
102
RTVSPropertyOp26
 70
     1
102
RTVSPropertyOp27
 70
     1
102
RTVSPropertyOp28
 70
     1
102
RTVSPropertyOp29
 70
     1
102
RTVSPropertyOp30
 70
     1
102
RTVSPropertyOp31
 70
     1
102
RTVSPropertyOp32
 70
     1
  0
XRECORD
  5
26A
102
{ACAD_REACTORS
330
269
102
}
330
269
100
AcDbXrecord
280
     1
102
RTVSPropertyOp0
 70
     1
102
RTVSPropertyOp1
 70
     1
102
RTVSPropertyOp2
 70
     1
102
RTVSPropertyOp3
 70
     1
102
RTVSPropertyOp4
 70
     1
102
RTVSPropertyOp5
 70
     1
102
RTVSPropertyOp6
 70
     1
102
RTVSPropertyOp7
 70
     1
102
RTVSPropertyOp8
 70
     1
102
RTVSPropertyOp9
 70
     1
102
RTVSPropertyOp10
 70
     1
102
RTVSPropertyOp11
 70
     1
102
RTVSPropertyOp12
 70
     1
102
RTVSPropertyOp13
 70
     1
102
RTVSPropertyOp14
 70
     1
102
RTVSPropertyOp15
 70
     1
102
RTVSPropertyOp16
 70
     1
102
RTVSPropertyOp17
 70
     1
102
RTVSPropertyOp18
 70
     1
102
RTVSPropertyOp19
 70
     1
102
RTVSPropertyOp20
 70
     1
102
RTVSPropertyOp21
 70
     1
102
RTVSPropertyOp22
 70
     1
102
RTVSPropertyOp23
 70
     1
102
RTVSPropertyOp24
 70
     1
102
RTVSPropertyOp25
 70
     1
102
RTVSPropertyOp26
 70
     1
102
RTVSPropertyOp27
 70
     1
102
RTVSPropertyOp28
 70
     1
102
RTVSPropertyOp29
 70
     1
102
RTVSPropertyOp30
 70
     1
102
RTVSPropertyOp31
 70
     1
102
RTVSPropertyOp32
 70
     1
  0
XRECORD
  5
26C
102
{ACAD_REACTORS
330
26B
102
}
330
26B
100
AcDbXrecord
280
     1
102
RTVSPropertyOp0
 70
     1
102
RTVSPropertyOp1
 70
     1
102
RTVSPropertyOp2
 70
     1
102
RTVSPropertyOp3
 70
     1
102
RTVSPropertyOp4
 70
     1
102
RTVSPropertyOp5
 70
     1
102
RTVSPropertyOp6
 70
     1
102
RTVSPropertyOp7
 70
     1
102
RTVSPropertyOp8
 70
     1
102
RTVSPropertyOp9
 70
     1
102
RTVSPropertyOp10
 70
     1
102
RTVSPropertyOp11
 70
     1
102
RTVSPropertyOp12
 70
     1
102
RTVSPropertyOp13
 70
     1
102
RTVSPropertyOp14
 70
     1
102
RTVSPropertyOp15
 70
     1
102
RTVSPropertyOp16
 70
     1
102
RTVSPropertyOp17
 70
     1
102
RTVSPropertyOp18
 70
     1
102
RTVSPropertyOp19
 70
     1
102
RTVSPropertyOp20
 70
     1
102
RTVSPropertyOp21
 70
     1
102
RTVSPropertyOp22
 70
     1
102
RTVSPropertyOp23
 70
     1
102
RTVSPropertyOp24
 70
     1
102
RTVSPropertyOp25
 70
     1
102
RTVSPropertyOp26
 70
     1
102
RTVSPropertyOp27
 70
     1
102
RTVSPropertyOp28
 70
     1
102
RTVSPropertyOp29
 70
     1
102
RTVSPropertyOp30
 70
     1
102
RTVSPropertyOp31
 70
     1
102
RTVSPropertyOp32
 70
     1
  0
XRECORD
  5
26E
102
{ACAD_REACTORS
330
26D
102
}
330
26D
100
AcDbXrecord
280
     1
102
RTVSPropertyOp0
 70
     1
102
RTVSPropertyOp1
 70
     1
102
RTVSPropertyOp2
 70
     1
102
RTVSPropertyOp3
 70
     1
102
RTVSPropertyOp4
 70
     1
102
RTVSPropertyOp5
 70
     1
102
RTVSPropertyOp6
 70
     1
102
RTVSPropertyOp7
 70
     1
102
RTVSPropertyOp8
 70
     1
102
RTVSPropertyOp9
 70
     1
102
RTVSPropertyOp10
 70
     1
102
RTVSPropertyOp11
 70
     1
102
RTVSPropertyOp12
 70
     1
102
RTVSPropertyOp13
 70
     1
102
RTVSPropertyOp14
 70
     1
102
RTVSPropertyOp15
 70
     1
102
RTVSPropertyOp16
 70
     1
102
RTVSPropertyOp17
 70
     1
102
RTVSPropertyOp18
 70
     1
102
RTVSPropertyOp19
 70
     1
102
RTVSPropertyOp20
 70
     1
102
RTVSPropertyOp21
 70
     1
102
RTVSPropertyOp22
 70
     1
102
RTVSPropertyOp23
 70
     1
102
RTVSPropertyOp24
 70
     1
102
RTVSPropertyOp25
 70
     1
102
RTVSPropertyOp26
 70
     1
102
RTVSPropertyOp27
 70
     1
102
RTVSPropertyOp28
 70
     1
102
RTVSPropertyOp29
 70
     1
102
RTVSPropertyOp30
 70
     1
102
RTVSPropertyOp31
 70
     1
102
RTVSPropertyOp32
 70
     1
  0
XRECORD
  5
270
102
{ACAD_REACTORS
330
26F
102
}
330
26F
100
AcDbXrecord
280
     1
102
RTVSPropertyOp0
 70
     1
102
RTVSPropertyOp1
 70
     1
102
RTVSPropertyOp2
 70
     1
102
RTVSPropertyOp3
 70
     1
102
RTVSPropertyOp4
 70
     1
102
RTVSPropertyOp5
 70
     1
102
RTVSPropertyOp6
 70
     1
102
RTVSPropertyOp7
 70
     1
102
RTVSPropertyOp8
 70
     1
102
RTVSPropertyOp9
 70
     1
102
RTVSPropertyOp10
 70
     1
102
RTVSPropertyOp11
 70
     1
102
RTVSPropertyOp12
 70
     1
102
RTVSPropertyOp13
 70
     1
102
RTVSPropertyOp14
 70
     1
102
RTVSPropertyOp15
 70
     1
102
RTVSPropertyOp16
 70
     1
102
RTVSPropertyOp17
 70
     1
102
RTVSPropertyOp18
 70
     1
102
RTVSPropertyOp19
 70
     1
102
RTVSPropertyOp20
 70
     1
102
RTVSPropertyOp21
 70
     1
102
RTVSPropertyOp22
 70
     1
102
RTVSPropertyOp23
 70
     1
102
RTVSPropertyOp24
 70
     1
102
RTVSPropertyOp25
 70
     1
102
RTVSPropertyOp26
 70
     1
102
RTVSPropertyOp27
 70
     1
102
RTVSPropertyOp28
 70
     1
102
RTVSPropertyOp29
 70
     1
102
RTVSPropertyOp30
 70
     1
102
RTVSPropertyOp31
 70
     1
102
RTVSPropertyOp32
 70
     1
  0
XRECORD
  5
284
102
{ACAD_REACTORS
330
283
102
}
330
283
100
AcDbXrecord
280
     1
102
RTVSPropertyOp0
 70
     1
102
RTVSPropertyOp1
 70
     1
102
RTVSPropertyOp2
 70
     1
102
RTVSPropertyOp3
 70
     1
102
RTVSPropertyOp4
 70
     1
102
RTVSPropertyOp5
 70
     1
102
RTVSPropertyOp6
 70
     1
102
RTVSPropertyOp7
 70
     1
102
RTVSPropertyOp8
 70
     1
102
RTVSPropertyOp9
 70
     1
102
RTVSPropertyOp10
 70
     1
102
RTVSPropertyOp11
 70
     1
102
RTVSPropertyOp12
 70
     1
102
RTVSPropertyOp13
 70
     1
102
RTVSPropertyOp14
 70
     1
102
RTVSPropertyOp15
 70
     1
102
RTVSPropertyOp16
 70
     1
102
RTVSPropertyOp17
 70
     1
102
RTVSPropertyOp18
 70
     1
102
RTVSPropertyOp19
 70
     1
102
RTVSPropertyOp20
 70
     1
102
RTVSPropertyOp21
 70
     1
102
RTVSPropertyOp22
 70
     1
102
RTVSPropertyOp23
 70
     1
102
RTVSPropertyOp24
 70
     1
102
RTVSPropertyOp25
 70
     1
102
RTVSPropertyOp26
 70
     1
102
RTVSPropertyOp27
 70
     1
102
RTVSPropertyOp28
 70
     1
102
RTVSPropertyOp29
 70
     1
102
RTVSPropertyOp30
 70
     1
102
RTVSPropertyOp31
 70
     1
102
RTVSPropertyOp32
 70
     1
  0
XRECORD
  5
27A
102
{ACAD_REACTORS
330
279
102
}
330
279
100
AcDbXrecord
280
     1
102
RTVSPropertyOp0
 70
     1
102
RTVSPropertyOp1
 70
     1
102
RTVSPropertyOp2
 70
     1
102
RTVSPropertyOp3
 70
     1
102
RTVSPropertyOp4
 70
     1
102
RTVSPropertyOp5
 70
     1
102
RTVSPropertyOp6
 70
     1
102
RTVSPropertyOp7
 70
     1
102
RTVSPropertyOp8
 70
     1
102
RTVSPropertyOp9
 70
     1
102
RTVSPropertyOp10
 70
     1
102
RTVSPropertyOp11
 70
     1
102
RTVSPropertyOp12
 70
     1
102
RTVSPropertyOp13
 70
     1
102
RTVSPropertyOp14
 70
     1
102
RTVSPropertyOp15
 70
     1
102
RTVSPropertyOp16
 70
     1
102
RTVSPropertyOp17
 70
     1
102
RTVSPropertyOp18
 70
     1
102
RTVSPropertyOp19
 70
     1
102
RTVSPropertyOp20
 70
     1
102
RTVSPropertyOp21
 70
     1
102
RTVSPropertyOp22
 70
     1
102
RTVSPropertyOp23
 70
     1
102
RTVSPropertyOp24
 70
     1
102
RTVSPropertyOp25
 70
     1
102
RTVSPropertyOp26
 70
     1
102
RTVSPropertyOp27
 70
     1
102
RTVSPropertyOp28
 70
     1
102
RTVSPropertyOp29
 70
     1
102
RTVSPropertyOp30
 70
     1
102
RTVSPropertyOp31
 70
     1
102
RTVSPropertyOp32
 70
     1
  0
XRECORD
  5
282
102
{ACAD_REACTORS
330
281
102
}
330
281
100
AcDbXrecord
280
     1
102
RTVSPropertyOp0
 70
     1
102
RTVSPropertyOp1
 70
     1
102
RTVSPropertyOp2
 70
     1
102
RTVSPropertyOp3
 70
     1
102
RTVSPropertyOp4
 70
     1
102
RTVSPropertyOp5
 70
     1
102
RTVSPropertyOp6
 70
     1
102
RTVSPropertyOp7
 70
     1
102
RTVSPropertyOp8
 70
     1
102
RTVSPropertyOp9
 70
     1
102
RTVSPropertyOp10
 70
     1
102
RTVSPropertyOp11
 70
     1
102
RTVSPropertyOp12
 70
     1
102
RTVSPropertyOp13
 70
     1
102
RTVSPropertyOp14
 70
     1
102
RTVSPropertyOp15
 70
     1
102
RTVSPropertyOp16
 70
     1
102
RTVSPropertyOp17
 70
     1
102
RTVSPropertyOp18
 70
     1
102
RTVSPropertyOp19
 70
     1
102
RTVSPropertyOp20
 70
     1
102
RTVSPropertyOp21
 70
     1
102
RTVSPropertyOp22
 70
     1
102
RTVSPropertyOp23
 70
     1
102
RTVSPropertyOp24
 70
     1
102
RTVSPropertyOp25
 70
     1
102
RTVSPropertyOp26
 70
     1
102
RTVSPropertyOp27
 70
     1
102
RTVSPropertyOp28
 70
     1
102
RTVSPropertyOp29
 70
     1
102
RTVSPropertyOp30
 70
     1
102
RTVSPropertyOp31
 70
     1
102
RTVSPropertyOp32
 70
     1
  0
ENDSEC
  0
EOF
